<?xml version="1.0" standalone="no"?>
<!DOCTYPE svg PUBLIC "-//W3C//DTD SVG 1.1//EN" "http://www.w3.org/Graphics/SVG/1.1/DTD/svg11.dtd" >
<svg xmlns="http://www.w3.org/2000/svg" xmlns:xlink="http://www.w3.org/1999/xlink" version="1.1">
<metadata>
Created by FontForge 20200314 at Wed Jan 13 11:59:37 2021
 By Robert Madole
Copyright (c) Font Awesome
</metadata>
<!-- Font Awesome Pro 5.15.2 by @fontawesome - https://fontawesome.com License - https://fontawesome.com/license (Commercial License) --><defs>
<font id="FontAwesome5Duotone-Solid" horiz-adv-x="640" >
  <font-face 
    font-family="Font Awesome 5 Duotone Solid"
    font-weight="900"
    font-stretch="normal"
    units-per-em="512"
    panose-1="2 0 5 3 0 0 0 0 0 0"
    ascent="448"
    descent="-64"
    bbox="-0.225586 -64.0166 640.016 448.124"
    underline-thickness="25"
    underline-position="-50"
    unicode-range="U+0020-10F8FF"
  />
    <missing-glyph />
    <glyph glyph-name="user-primary" unicode="&#xf007;" horiz-adv-x="448" 
d="M313.6 160c74.1699 -0.0166016 134.384 -60.2305 134.4 -134.4v-41.5996c0 -26.4922 -21.5078 -48 -48 -48h-352c-26.4922 0 -48 21.5078 -48 48v41.5996c0.0166016 74.1699 60.2305 134.384 134.4 134.4h16.6992c22.1426 -10.21 47.085 -15.9053 73.0498 -15.9053
c25.9639 0 50.6084 5.69531 72.751 15.9053h16.6992z" />
    <glyph glyph-name="users-primary" unicode="&#xf0c0;" 
d="M396.8 160c63.5732 -0.0166016 115.184 -51.627 115.2 -115.2v-28.7998c0 -26.4922 -21.5078 -48 -48 -48h-288c-26.4922 0 -48 21.5078 -48 48v28.7998c0.0166016 63.5732 51.627 115.184 115.2 115.2h8.2998c20.9004 -10 43.9004 -16 68.5 -16
c24.498 0.105469 47.8447 5.9043 68.5 16h8.2998zM320 192c-0.0205078 0 -0.0400391 -0.000976562 -0.0595703 -0.000976562c-61.7822 0 -111.94 50.1582 -111.94 111.939v0.0615234c0 61.8145 50.1855 112 112 112s112 -50.1855 112 -112s-50.1855 -112 -112 -112z" />
    <glyph glyph-name="cloud-primary" unicode="&#xf0c2;" 
d="M640 96c0 -70.6455 -57.3545 -128 -128 -128h-368h-0.188477c-79.4766 0 -144 64.5244 -144 144c0 62.8076 40.2598 116.234 96.3887 135.9c-0.100586 2.69922 -0.200195 5.39941 -0.200195 8.09961v0.0371094c0 88.3057 71.6934 160 160 160
c59.3398 0 111.076 -32.2031 138.7 -80.2373c15.2402 10.1953 33.5576 16.1426 53.2529 16.1426c52.9561 0 95.9502 -42.9941 95.9502 -95.9502c0 -0.0166016 0.0966797 0.0244141 0.0966797 0.0078125c0 -12.167 -2.28906 -23.8721 -6.40039 -34.5996
c58.3438 -11.9102 102.394 -63.5615 102.4 -125.4z" />
    <glyph glyph-name="cloud-download-primary" unicode="&#xf0ed;" 
d="M397.7 128.4l-92.7002 -92.7002c-4.33008 -4.35645 -10.3262 -7.05469 -16.9473 -7.05469s-12.623 2.69824 -16.9531 7.05469l-92.6992 92.7002c-4.35645 4.33008 -7.05469 10.3252 -7.05469 16.9463s2.69824 12.623 7.05469 16.9531l10.7998 10.7998
c4.3584 4.34473 10.3691 7.03125 17.0029 7.03125c6.88574 0 13.1045 -2.8916 17.4971 -7.53125l32.3994 -34.5v125.9v0.0615234c0 13.2129 10.7275 23.9395 23.9404 23.9395c0.0205078 0 0.0400391 -0.000976562 0.0595703 -0.000976562h16h0.0615234
c13.2129 0 23.9404 -10.7275 23.9404 -23.9395c0 -0.0205078 -0.00195312 -0.0400391 -0.00195312 -0.0605469v-125.9l32.4004 34.5c4.37891 4.66211 10.5986 7.5752 17.4922 7.5752c6.64258 0 12.6602 -2.70801 17.0078 -7.0752l10.7998 -10.7998
c4.26074 -4.36035 6.8877 -10.3223 6.8877 -16.8945c0 -6.62305 -2.66797 -12.6367 -6.9873 -17.0049z" />
    <glyph glyph-name="cloud-upload-primary" unicode="&#xf0ee;" 
d="M397.7 157.7l-10.7998 -10.7998c-4.3584 -4.34473 -10.3691 -7.03125 -17.0029 -7.03125c-6.88672 0 -13.1055 2.8916 -17.4971 7.53125l-32.4004 34.5v-125.9v-0.0615234c0 -13.2129 -10.7275 -23.9395 -23.9395 -23.9395
c-0.0205078 0 -0.0400391 0.000976562 -0.0605469 0.000976562h-16h-0.0615234c-13.2129 0 -23.9395 10.7275 -23.9395 23.9395c0 0.0205078 0.000976562 0.0400391 0.000976562 0.0605469v125.9l-32.4004 -34.5c-4.37891 -4.66211 -10.5977 -7.5752 -17.4922 -7.5752
c-6.6416 0 -12.6602 2.70801 -17.0078 7.0752l-10.7998 10.7998c-4.35547 4.33008 -7.05371 10.3262 -7.05371 16.9473s2.69824 12.6221 7.05371 16.9521l92.7002 92.7002c4.33008 4.35645 10.3262 7.05469 16.9473 7.05469s12.623 -2.69824 16.9531 -7.05469
l92.6992 -92.7002c4.3623 -4.34668 7.0625 -10.3584 7.0625 -16.9971c0 -6.58594 -2.65918 -12.5645 -6.96191 -16.9023z" />
    <glyph glyph-name="user-md-primary" unicode="&#xf0f0;" horiz-adv-x="448" 
d="M319.8 159.85c71.249 -3.31055 128.176 -62.1934 128.2 -134.25v-41.5996c0 -26.4922 -21.5078 -48 -48 -48h-352c-26.4922 0 -48 21.5078 -48 48v41.5996c0.0244141 66.4951 48.542 121.775 112 132.53v-80.7295c-23.1191 -6.89355 -40.0049 -28.3291 -40.0049 -53.6758
c0 -30.9072 25.0928 -56 56 -56s56 25.0928 56 56c0 25.3467 -16.876 46.7822 -39.9951 53.6758v82.5996h7.09961c22.1348 -10.209 47.0176 -15.9268 72.9746 -15.9268c22.5645 0 44.1328 4.30469 63.9258 12.1367v-70.4102c-28.2002 -7.5 -48 -34.5 -48 -64.5996v-29.2002
c0.0146484 -4.40918 1.80664 -8.40527 4.7002 -11.2998l10.2998 -10.2998c1.44727 -1.44434 3.44727 -2.33789 5.65137 -2.33789s4.20117 0.893555 5.64844 2.33789l11.2998 11.2998c1.44434 1.44727 2.33789 3.44727 2.33789 5.65137s-0.893555 4.20117 -2.33789 5.64844
l-5.69922 5.7002v25.2998c0.0585938 17.6885 14.4072 32.0342 32.1094 32.0342c1.80176 0 3.56934 -0.148438 5.29004 -0.43457c15.7002 -2.59961 26.6006 -17.3994 26.6006 -33.2998v-23.5996l-5.7002 -5.7002c-1.44434 -1.44727 -2.33789 -3.44727 -2.33789 -5.65137
s0.893555 -4.20117 2.33789 -5.64844l11.2998 -11.2998c1.44727 -1.44434 3.44727 -2.33789 5.65137 -2.33789s4.20117 0.893555 5.64844 2.33789l10.2998 10.2998c2.89355 2.89453 4.68555 6.89062 4.7002 11.2998v32c-0.0986328 29.6553 -20.499 54.5703 -48 61.5996
v74.25zM104 24c0 0.0205078 -0.000976562 0.0400391 -0.000976562 0.0605469c0 13.2119 10.7266 23.9395 23.9395 23.9395h0.0615234c13.2461 0 24 -10.7539 24 -24s-10.7539 -24 -24 -24s-24 10.7539 -24 24z" />
    <glyph glyph-name="sliders-h-primary" unicode="&#xf1de;" horiz-adv-x="512" 
d="M272 416c8.83105 0 16 -7.16895 16 -16v-96c0 -8.83105 -7.16895 -16 -16 -16h-32c-8.83105 0 -16 7.16895 -16 16v96c0 8.83105 7.16895 16 16 16h32zM400 256c8.83105 0 16 -7.16895 16 -16v-96c0 -8.83105 -7.16895 -16 -16 -16h-32c-8.83105 0 -16 7.16895 -16 16v96
c0 8.83105 7.16895 16 16 16h32zM144 96c8.83105 0 16 -7.16895 16 -16v-96c0 -8.83105 -7.16895 -16 -16 -16h-32c-8.83105 0 -16 7.16895 -16 16v96c0 8.83105 7.16895 16 16 16h32z" />
    <glyph glyph-name="user-secret-primary" unicode="&#xf21b;" horiz-adv-x="448" 
d="M120 283c-52.9502 7.83984 -88 21.4805 -88 37c0 13.75 27.5098 26 70.5996 34.0898c9.40039 32.1104 26.7803 64.0801 40 80.7197c5.88184 7.43066 14.998 12.1582 25.2002 12.1582c5.13672 0 9.99316 -1.20898 14.2998 -3.35742l27.6006 -13.8008
c4.29688 -2.14551 9.20508 -3.35352 14.3311 -3.35352s9.97168 1.20801 14.2686 3.35352l27.6006 13.8008c4.30664 2.14844 9.18164 3.39941 14.3184 3.39941c10.2021 0 19.2998 -4.76953 25.1816 -12.2002c13.3096 -16.6396 30.6494 -48.6094 40 -80.7197
c43.0898 -8.08984 70.5996 -20.3398 70.5996 -34.0898c0 -15.5303 -35.0498 -29.1699 -88 -37v-6.58984c-0.110352 -0.110352 -6.07031 -3.46973 -6.92969 -6.28027c-4.23047 -12.8994 -7.58984 -26.6494 -17.8799 -36.1895
c-10.9404 -10.0703 -52 -24.2607 -69.3301 27.0898c-3.04004 9.09961 -16.6904 9.09961 -19.8301 0c-18.4102 -54.3906 -60.6602 -35.0898 -69.3301 -27.0898c-10.29 9.54004 -13.7598 23.29 -17.8799 36.1895c-0.820312 2.7002 -6.82031 6.16992 -6.82031 6.28027v6.58984z
M383.9 139.73c38.5049 -23.4326 64.0996 -65.7119 64.0996 -114.042v-0.0888672v-41.5996c0 -26.4922 -21.5078 -48 -48 -48h-352c-26.4922 0 -48 21.5078 -48 48v41.5996c0 0.0146484 -0.142578 -0.0576172 -0.142578 -0.0439453
c0 49.6914 27.1953 93.0811 67.5029 116.084l-25.7402 60.0605c-0.827148 1.93066 -1.29297 4.06836 -1.29297 6.2998c0 8.82812 7.16602 15.9961 15.9932 16h31l136.68 -256l136.68 256.01h32.1201c0.0175781 0 0.0273438 -0.00683594 0.0439453 -0.00683594
c8.83105 0 16 -7.16992 16 -16c0 -2.00488 -0.369141 -3.92383 -1.04395 -5.69336z" />
    <glyph glyph-name="user-plus-primary" unicode="&#xf234;" 
d="M224 192c-70.6455 0 -128 57.3545 -128 128s57.3545 128 128 128s128 -57.3545 128 -128s-57.3545 -128 -128 -128zM313.6 160c74.1699 -0.0166016 134.384 -60.2305 134.4 -134.4v-41.5996c0 -26.4922 -21.5078 -48 -48 -48h-352c-26.4922 0 -48 21.5078 -48 48v41.5996
c0.0166016 74.1699 60.2305 134.384 134.4 134.4h16.6992c22.1426 -10.2109 47.085 -15.9072 73.0498 -15.9072c25.9639 0 50.6084 5.69629 72.751 15.9072h16.6992z" />
    <glyph glyph-name="user-times-primary" unicode="&#xf235;" 
d="M313.6 160c74.1699 -0.0166016 134.384 -60.2305 134.4 -134.4v-41.5996c0 -26.4922 -21.5078 -48 -48 -48h-352c-26.4922 0 -48 21.5078 -48 48v41.5996c0.0166016 74.1699 60.2305 134.384 134.4 134.4h16.6992c22.1426 -10.2109 47.085 -15.9072 73.0498 -15.9072
c25.9639 0 50.6084 5.69629 72.751 15.9072h16.6992zM224 192c-70.6455 0 -128 57.3545 -128 128s57.3545 128 128 128s128 -57.3545 128 -128s-57.3545 -128 -128 -128z" />
    <glyph glyph-name="cloud-download-alt-primary" unicode="&#xf381;" 
d="M404.7 132.7l-105.4 -105.4c-2.90234 -2.87402 -6.89355 -4.64941 -11.2969 -4.64941s-8.40039 1.77539 -11.3027 4.64941l-105.4 105.4c-10.0996 10.0996 -2.89941 27.2998 11.2998 27.2998h65.4004v112c0 8.83105 7.16895 16 16 16h48c8.83105 0 16 -7.16895 16 -16
v-112h65.4004c14.1992 0 21.3994 -17.2002 11.2998 -27.2998z" />
    <glyph glyph-name="cloud-upload-alt-primary" unicode="&#xf382;" 
d="M393.4 160h-65.4004v-112c0 -8.83105 -7.16895 -16 -16 -16h-48c-8.83105 0 -16 7.16895 -16 16v112h-65.4004c-8.81738 0.0146484 -15.9717 7.17871 -15.9717 16c0 4.4082 1.78418 8.40527 4.67188 11.2998l105.4 105.4
c2.90234 2.87402 6.89355 4.64941 11.2969 4.64941s8.40039 -1.77539 11.3027 -4.64941l105.4 -105.4c10.0996 -10.0996 2.89941 -27.2998 -11.2998 -27.2998z" />
    <glyph glyph-name="sliders-v-primary" unicode="&#xf3f1;" horiz-adv-x="448" 
d="M112 352c8.83105 0 16 -7.16895 16 -16v-32c0 -8.83105 -7.16895 -16 -16 -16h-96c-8.83105 0 -16 7.16895 -16 16v32c0 8.83105 7.16895 16 16 16h96zM432 224c8.83105 0 16 -7.16895 16 -16v-32c0 -8.83105 -7.16895 -16 -16 -16h-96c-8.83105 0 -16 7.16895 -16 16v32
c0 8.83105 7.16895 16 16 16h96zM272 96c8.83105 0 16 -7.16895 16 -16v-32c0 -8.83105 -7.16895 -16 -16 -16h-96c-8.83105 0 -16 7.16895 -16 16v32c0 8.83105 7.16895 16 16 16h96z" />
    <glyph glyph-name="user-alt-primary" unicode="&#xf406;" horiz-adv-x="512" 
d="M384 128c70.6455 0 128 -57.3545 128 -128v-16c0 -26.4922 -21.5078 -48 -48 -48h-416c-26.4922 0 -48 21.5078 -48 48v16c0 70.6455 57.3545 128 128 128h55.0996c22.1426 -10.21 47.085 -15.9053 73.0498 -15.9053c25.9639 0 50.6084 5.69531 72.751 15.9053h55.0996z
" />
    <glyph glyph-name="user-alt-slash-primary" unicode="&#xf4fa;" 
d="M636.67 -32.4004l-19.5996 -25.2998c-2.94043 -3.7627 -7.52051 -6.18359 -12.6621 -6.18359c-3.70215 0 -7.12012 1.27539 -9.83789 3.38379l-588.4 454.7c-3.76367 2.91504 -6.1875 7.47656 -6.1875 12.6006c0 3.69141 1.27734 7.09668 3.3877 9.79883l19.6299 25.2002
c2.94043 3.7627 7.52051 6.18359 12.6611 6.18359c3.70312 0 7.12109 -1.27441 9.83887 -3.38379l588.3 -454.699c3.77832 -2.89844 6.21582 -7.45898 6.21582 -12.584c0 -3.65723 -1.26074 -7.0332 -3.3457 -9.7168z" />
    <glyph glyph-name="user-astronaut-primary" unicode="&#xf4fb;" horiz-adv-x="448" 
d="M327.6 126.6c67.5 -7.09961 120.4 -63.5996 120.4 -133v-9.59961c0 -26.4922 -21.5078 -48 -48 -48h-80v64c0 17.6611 -14.3389 32 -32 32h-128c-17.6611 0 -32 -14.3389 -32 -32v-64h-80c-26.4922 0 -48 21.5078 -48 48v9.59961c0 69.4004 52.9004 125.9 120.4 133
c29.7949 -19.2822 65.6963 -30.4814 103.797 -30.4814c38.1016 0 73.6074 11.1992 103.402 30.4814zM64 224c-8.83105 0 -16 7.16895 -16 16v96c0 8.83105 7.16895 16 16 16h13.5c24.6172 56.5469 80.8574 96.124 146.423 96.124s121.96 -39.5771 146.577 -96.124h13.5
c8.83105 0 16 -7.16895 16 -16v-96c0 -8.83105 -7.16895 -16 -16 -16h-13.5c-24.6172 -56.5469 -80.8574 -96.124 -146.423 -96.124s-121.96 39.5771 -146.577 96.124h-13.5zM104 312v-24c0 -52.9834 43.0166 -96 96 -96h48c52.9834 0 96 43.0166 96 96v24
c0 22.0996 -21.5 40 -48 40h-144c-26.5 0 -48 -17.9004 -48 -40z" />
    <glyph glyph-name="user-check-primary" unicode="&#xf4fc;" 
d="M224 192c-70.6455 0 -128 57.3545 -128 128s57.3545 128 128 128s128 -57.3545 128 -128s-57.3545 -128 -128 -128zM313.6 160c74.1699 -0.0166016 134.384 -60.2305 134.4 -134.4v-41.5996c0 -26.4922 -21.5078 -48 -48 -48h-352c-26.4922 0 -48 21.5078 -48 48v41.5996
c0.0166016 74.1699 60.2305 134.384 134.4 134.4h16.6992c22.1426 -10.2109 47.085 -15.9072 73.0498 -15.9072c25.9639 0 50.6084 5.69629 72.751 15.9072h16.6992z" />
    <glyph glyph-name="user-clock-primary" unicode="&#xf4fd;" 
d="M224 192c-70.6455 0 -128 57.3545 -128 128s57.3545 128 128 128s128 -57.3545 128 -128s-57.3545 -128 -128 -128zM320 80c0 -59.5 29.7998 -112.1 75.0996 -144h-347.1c-26.4922 0 -48 21.5078 -48 48v41.5996c0.0166016 74.1699 60.2305 134.384 134.4 134.4h16.6992
c22.1426 -10.2109 47.085 -15.9072 73.0498 -15.9072c25.9639 0 50.6084 5.69629 72.751 15.9072h16.6992c8.4375 -0.0703125 16.6045 -0.927734 24.6006 -2.5c-11.5439 -23.3223 -18.1533 -49.7461 -18.2002 -77.5z" />
    <glyph glyph-name="user-cog-primary" unicode="&#xf4fe;" 
d="M425.2 -43.7002c0.0566406 -4.1123 0.761719 -8.08789 2 -11.7998c-7.71777 -5.33301 -17.1201 -8.48926 -27.2002 -8.5h-352c-26.4922 0 -48 21.5078 -48 48v41.5996c0.0166016 74.1699 60.2305 134.384 134.4 134.4h16.6992
c22.1426 -10.2109 47.085 -15.9072 73.0498 -15.9072c25.9639 0 50.6084 5.69629 72.751 15.9072h16.6992c3.90039 0 7.60059 -0.900391 11.4004 -1.2002c-1 -2.89941 -2.2998 -5.7998 -3.2002 -8.7002c-1.17188 -3.71191 -1.85449 -7.63965 -1.85449 -11.7373
c0 -14.5391 7.95898 -27.2344 19.7549 -33.9619l7.89941 -4.60059c-0.0996094 -2.59961 -0.0996094 -5.19922 0 -7.7998l-7.89941 -4.59961c-11.792 -6.73926 -19.6963 -19.415 -19.6963 -33.958c0 -4.09082 0.628906 -8.03516 1.7959 -11.7422
c8.14844 -26.1982 22.0244 -49.9336 40.2002 -69.6006c7.16895 -7.75488 17.4658 -12.5752 28.8496 -12.5752c7.1582 0 13.8711 1.9209 19.6504 5.27539l7.90039 4.60059c2.19922 -1.30078 4.5 -2.7002 6.7998 -3.90039v-9.2002zM224 192c-70.6455 0 -128 57.3545 -128 128
s57.3545 128 128 128s128 -57.3545 128 -128s-57.3545 -128 -128 -128z" />
    <glyph glyph-name="user-edit-primary" unicode="&#xf4ff;" 
d="M313.6 160c39.9004 0 75.4004 -17.7998 99.9004 -45.5l-85.2002 -85.2002l-1.2002 -11.0996l-6.7998 -60.9004c-0.171875 -1.65332 -0.243164 -3.29883 -0.243164 -4.99805c0 -5.72168 1.00293 -11.2109 2.84375 -16.3018h-274.9c-26.4922 0 -48 21.5078 -48 48v41.5996
c0.0166016 74.1699 60.2305 134.384 134.4 134.4h16.6992c22.1426 -10.2109 47.085 -15.9072 73.0498 -15.9072c25.9639 0 50.6084 5.69629 72.751 15.9072h16.6992zM224 192c-70.6455 0 -128 57.3545 -128 128s57.3545 128 128 128s128 -57.3545 128 -128
s-57.3545 -128 -128 -128z" />
    <glyph glyph-name="user-friends-primary" unicode="&#xf500;" 
d="M192 192c-0.0205078 0 -0.0400391 -0.000976562 -0.0595703 -0.000976562c-61.7822 0 -111.94 50.1582 -111.94 111.939v0.0615234c0 61.8145 50.1855 112 112 112s112 -50.1855 112 -112s-50.1855 -112 -112 -112zM268.8 160
c63.5732 -0.0166016 115.184 -51.627 115.2 -115.2v-28.7998c0 -26.4922 -21.5078 -48 -48 -48h-288c-26.4922 0 -48 21.5078 -48 48v28.7998c0.0166016 63.5732 51.627 115.184 115.2 115.2h8.2998c20.9004 -10 43.9004 -16 68.5 -16
c24.498 0.105469 47.8447 5.9043 68.5 16h8.2998z" />
    <glyph glyph-name="user-graduate-primary" unicode="&#xf501;" horiz-adv-x="448" 
d="M13.5996 368.17c-18.0996 4.41016 -18.0996 27.21 0 31.5996l190.601 45.9004c6.38574 1.5166 12.957 2.32031 19.8047 2.32031s13.5088 -0.803711 19.8955 -2.32031l190.399 -46c18.2002 -4.40039 18.2002 -27.0898 0 -31.5l-82.2998 -19.8203v-36.3496h-256v36.3496
l-52 12.5303v-52.5898c7 -4.19043 12 -11.5 12 -20.29c0 -8.41992 -4.59961 -15.4199 -11.0996 -19.7305l15.5996 -62.2695c1.7002 -6.90039 -2.09961 -14 -7.59961 -14h-41.8008c-5.5 0 -9.2998 7.09961 -7.59961 14l15.5996 62.29
c-6.5 4.30957 -11.0996 11.3096 -11.0996 19.71c0 8.76953 5 16.0801 12 20.2695v58.4004zM319.4 127.38c71.5 -3.11035 128.6 -61.6104 128.6 -133.78v-9.59961c0 -26.4922 -21.5078 -48 -48 -48h-352c-26.4922 0 -48 21.5078 -48 48v9.58008
c0 72.1895 57.0996 130.689 128.6 133.82l95.4004 -95.4004z" />
    <glyph glyph-name="user-minus-primary" unicode="&#xf503;" 
d="M313.6 160c74.1699 -0.0166016 134.384 -60.2305 134.4 -134.4v-41.5996c0 -26.4922 -21.5078 -48 -48 -48h-352c-26.4922 0 -48 21.5078 -48 48v41.5996c0.0166016 74.1699 60.2305 134.384 134.4 134.4h16.6992c22.1426 -10.2109 47.085 -15.9072 73.0498 -15.9072
c25.9639 0 50.6084 5.69629 72.751 15.9072h16.6992zM224 192c-70.6455 0 -128 57.3545 -128 128s57.3545 128 128 128s128 -57.3545 128 -128s-57.3545 -128 -128 -128z" />
    <glyph glyph-name="user-ninja-primary" unicode="&#xf504;" horiz-adv-x="448" 
d="M325.4 158.8c68.5996 -6.09961 122.6 -63 122.6 -133.2v-41.5996c0 -26.4922 -21.5078 -48 -48 -48h-352c-26.4922 0 -48 21.5078 -48 48v41.5996c0 70.2002 54 127.101 122.6 133.2l101.4 -101.399zM32 256c0 0.00976562 -0.0976562 -0.0380859 -0.0976562 -0.0273438
c0 33.4434 17.1846 62.9043 43.1973 80.0273c-26.0127 17.123 -43.0996 46.5264 -43.0996 79.9697v0.0302734c31.9346 -0.0302734 60.1729 -15.6758 77.5 -39.7998c20.9004 42.3994 64.0996 71.7998 114.5 71.7998c70.6455 0 128 -57.3545 128 -128s-57.3545 -128 -128 -128
c-58.7998 0 -107.7 39.7998 -122.8 93.7002c-17.3984 -18.3066 -41.9766 -29.7002 -69.2002 -29.7002zM176 352c-17.6611 0 -32 -14.3389 -32 -32h160c0 17.6611 -14.3389 32 -32 32h-96z" />
    <glyph glyph-name="user-shield-primary" unicode="&#xf505;" 
d="M224 192c-70.6455 0 -128 57.3545 -128 128s57.3545 128 128 128s128 -57.3545 128 -128s-57.3545 -128 -128 -128zM320 152c0 -95.2998 45.2002 -169.1 99.2002 -212c-5.88477 -2.5293 -12.4004 -3.9668 -19.2002 -4h-352c-26.4922 0 -48 21.5078 -48 48v41.5996
c0.0166016 74.1699 60.2305 134.384 134.4 134.4h16.6992c22.1426 -10.2109 47.085 -15.9072 73.0498 -15.9072c25.9639 0 50.6084 5.69629 72.751 15.9072h16.6992c2.60059 0 5 -0.700195 7.5 -0.799805c-0.299805 -2.40039 -1.09961 -4.7002 -1.09961 -7.2002z" />
    <glyph glyph-name="user-slash-primary" unicode="&#xf506;" 
d="M636.67 -32.4004l-19.5996 -25.2998c-2.94043 -3.7627 -7.52051 -6.18359 -12.6621 -6.18359c-3.70215 0 -7.12012 1.27539 -9.83789 3.38379l-588.4 454.7c-3.76367 2.91504 -6.1875 7.47656 -6.1875 12.6006c0 3.69141 1.27734 7.09668 3.3877 9.79883l19.6299 25.2002
c2.94043 3.7627 7.52051 6.18359 12.6611 6.18359c3.70312 0 7.12109 -1.27441 9.83887 -3.38379l588.3 -454.699c3.77832 -2.89844 6.21582 -7.45898 6.21582 -12.584c0 -3.65723 -1.26074 -7.0332 -3.3457 -9.7168z" />
    <glyph glyph-name="user-tag-primary" unicode="&#xf507;" 
d="M379.9 13l58 -58c-8.69727 -11.4629 -22.4277 -18.8467 -37.9004 -18.9004h-352c-26.4922 0 -48 21.5088 -48 48v41.6006c0.0439453 74.1777 60.2344 134.4 134.4 134.5h16.6992c22.1426 -10.2109 47.085 -15.9082 73.0498 -15.9082
c25.9639 0 50.6084 5.69727 72.751 15.9082h16.6992c13.3008 0 26 -2.60059 38.2002 -6.2002v-73.0996c0 -0.100586 -0.0146484 -0.208008 -0.0146484 -0.308594c0 -26.4033 10.7529 -50.3154 28.1152 -67.5918zM224 192.1c-70.6113 0 -127.945 57.3018 -128 127.9
v0.0996094c0 70.6455 57.3545 128 128 128s128 -57.3545 128 -128c0 -70.6445 -57.3545 -128 -128 -128z" />
    <glyph glyph-name="user-tie-primary" unicode="&#xf508;" horiz-adv-x="448" 
d="M319.8 159.4c71.2998 -3.40039 128.2 -61.7002 128.2 -133.801v-41.5996c0 -26.4922 -21.5078 -48 -48 -48h-352c-26.4922 0 -48 21.5078 -48 48v41.5996c0 72.1006 56.9004 130.4 128.2 133.801l95.7998 -191.4z" />
    <glyph glyph-name="users-cog-primary" unicode="&#xf509;" 
d="M320 192.1c-0.0341797 0 -0.0664062 0.00195312 -0.0996094 0.00195312c-61.8145 0 -112 50.1855 -112 112s50.1855 112 112 112s112 -50.1855 112 -112v-0.101562c-0.0810547 -17.1621 -4.13867 -33.5205 -11.2002 -48
c-0.799805 -0.5 -1.60059 -0.900391 -2.40039 -1.40039l-7.89941 4.60059c-5.7041 3.35254 -12.3867 5.2998 -19.4756 5.2998h-0.125c-0.00488281 0 -0.00683594 0.0136719 -0.0126953 0.0136719c-11.4062 0 -21.6875 -4.85742 -28.8867 -12.6133
c-15.6035 -17.1045 -27.9834 -37.1416 -36.3008 -59.2002c-1.89941 -0.100586 -3.69922 -0.600586 -5.59961 -0.600586zM173.1 173.5c-40.2061 -21.9053 -68.9023 -62.1396 -75.1992 -109.4h-65.9004c-17.6611 0 -32 14.3389 -32 32v32
c0.0332031 35.3076 28.6924 63.9678 64 64h64c0.0234375 0 0.0556641 0.00878906 0.0791016 0.00878906c17.5625 0 33.4775 -7.11133 45.0205 -18.6084zM96 224.1c-35.3076 0.0332031 -63.9668 28.6934 -64 64c0 35.3232 28.6777 64 64 64s64 -28.6768 64 -64
c0 -35.3223 -28.6777 -64 -64 -64zM425.2 -2.40039v-9.19922c0.12793 -7.45703 2.40332 -14.4512 6.2002 -20.3008h-255.4c-26.4922 0 -48 21.5088 -48 48v28.8008c0.0273438 63.584 51.6582 115.199 115.249 115.199h0.0507812h8.2998c20.9004 -10 43.9004 -16 68.5 -16
c3.30078 0 6.5 0.400391 9.80078 0.600586c2.82812 -3.20312 6.10059 -5.91309 9.7998 -8.10059l7.89941 -4.59961c-0.0996094 -2.60059 -0.0996094 -5.2002 0 -7.7998c-0.899414 -0.600586 -36.5 -15.7998 -25.7998 -50.2998
c8.14844 -26.1982 22.0244 -49.9336 40.2002 -69.6006c7.22754 -7.72852 17.5029 -12.5615 28.9004 -12.5996c12.1992 0 19.2998 5 27.5 9.7998c2.19922 -1.2998 4.5 -2.7002 6.7998 -3.90039z" />
    <glyph glyph-name="user-secondary" unicode="&#x10f007;" horiz-adv-x="448" 
d="M352 320c0 -70.6455 -57.3545 -128 -128 -128s-128 57.3545 -128 128s57.3545 128 128 128s128 -57.3545 128 -128z" />
    <glyph glyph-name="users-secondary" unicode="&#x10f0c0;" 
d="M96 224c-35.3076 0.0332031 -63.9668 28.6924 -64 64c0 35.3223 28.6777 64 64 64s64 -28.6777 64 -64s-28.6777 -64 -64 -64zM576 192c35.3076 -0.0332031 63.9668 -28.6924 64 -64v-32c0 -17.6611 -14.3389 -32 -32 -32h-66
c-6.21777 47.2695 -34.8955 87.5195 -75.0996 109.4c11.543 11.4971 27.4658 18.5996 45.0293 18.5996h0.0703125h64zM64 192h64c0.0234375 0 0.0556641 0.0078125 0.0791016 0.0078125c17.5625 0 33.4775 -7.11035 45.0205 -18.6074
c-40.2061 -21.9053 -68.9023 -62.1396 -75.1992 -109.4h-65.9004c-17.6611 0 -32 14.3389 -32 32v32c0.0332031 35.3076 28.6924 63.9668 64 64zM544 224c-35.3076 0.0332031 -63.9668 28.6924 -64 64c0 35.3223 28.6777 64 64 64s64 -28.6777 64 -64s-28.6777 -64 -64 -64z
" />
    <glyph glyph-name="cloud-secondary" unicode="&#x10f0c2;" 
 />
    <glyph glyph-name="cloud-download-secondary" unicode="&#x10f0ed;" 
d="M537.6 221.4c58.3154 -11.9365 102.331 -63.5791 102.331 -125.4c0 -70.6221 -57.3174 -127.963 -127.931 -128h-368c-0.0625 0 -0.163086 -0.0429688 -0.225586 -0.0429688c-79.4766 0 -144 64.5244 -144 144c0 62.8076 40.2969 116.277 96.4258 135.943
c-0.100586 2.69922 -0.200195 5.39941 -0.200195 8.09961c0 0.0126953 -0.101562 0.195312 -0.101562 0.207031c0 88.3066 71.6934 160 160 160c59.3398 0 111.178 -32.373 138.802 -80.4072c15.1924 10.1943 33.5615 16.2002 53.2158 16.2002h0.0839844
c52.9941 -0.0595703 95.9658 -43.1494 95.9658 -96.1572c0 -12.1357 -2.25391 -23.748 -6.36621 -34.4424zM397.7 128.4c4.31934 4.36816 6.9873 10.3818 6.9873 17.0049c0 6.57227 -2.62695 12.5342 -6.8877 16.8945l-10.7998 10.7998
c-4.34766 4.36719 -10.3652 7.0752 -17.0078 7.0752c-6.89355 0 -13.1133 -2.91309 -17.4922 -7.5752l-32.4004 -34.5v125.9c0 0.0205078 0.00195312 0.0400391 0.00195312 0.0605469c0 13.2119 -10.7275 23.9395 -23.9404 23.9395h-0.0615234h-16
c-0.0195312 0 -0.0390625 0.000976562 -0.0595703 0.000976562c-13.2129 0 -23.9404 -10.7266 -23.9404 -23.9395v-0.0615234v-125.9l-32.3994 34.5c-4.39258 4.63965 -10.6113 7.53125 -17.4971 7.53125c-6.63379 0 -12.6445 -2.68652 -17.0029 -7.03125l-10.7998 -10.7998
c-4.35645 -4.33008 -7.05469 -10.332 -7.05469 -16.9531s2.69824 -12.6162 7.05469 -16.9463l92.6992 -92.7002c4.33008 -4.35645 10.332 -7.05469 16.9531 -7.05469s12.6172 2.69824 16.9473 7.05469z" />
    <glyph glyph-name="cloud-upload-secondary" unicode="&#x10f0ee;" 
d="M537.6 221.4c58.3154 -11.9365 102.331 -63.5791 102.331 -125.4c0 -70.6221 -57.3174 -127.963 -127.931 -128h-368c-0.0625 0 -0.163086 -0.0429688 -0.225586 -0.0429688c-79.4766 0 -144 64.5244 -144 144c0 62.8076 40.2969 116.277 96.4258 135.943
c-0.100586 2.69922 -0.200195 5.39941 -0.200195 8.09961c0 0.0126953 -0.101562 0.195312 -0.101562 0.207031c0 88.3066 71.6934 160 160 160c59.3398 0 111.178 -32.373 138.802 -80.4072c15.1924 10.1943 33.5615 16.2002 53.2158 16.2002h0.0839844
c52.9941 -0.0595703 95.9658 -43.1494 95.9658 -96.1572c0 -12.1357 -2.25391 -23.748 -6.36621 -34.4424zM397.7 157.7c4.30273 4.33789 6.96191 10.3164 6.96191 16.9023c0 6.63867 -2.7002 12.6504 -7.0625 16.9971l-92.6992 92.7002
c-4.33008 4.35645 -10.332 7.05469 -16.9531 7.05469s-12.6172 -2.69824 -16.9473 -7.05469l-92.7002 -92.7002c-4.35547 -4.33008 -7.05371 -10.3311 -7.05371 -16.9521s2.69824 -12.6172 7.05371 -16.9473l10.7998 -10.7998
c4.34766 -4.36719 10.3662 -7.0752 17.0078 -7.0752c6.89453 0 13.1133 2.91309 17.4922 7.5752l32.4004 34.5v-125.9c0 -0.0205078 -0.000976562 -0.0400391 -0.000976562 -0.0605469c0 -13.2119 10.7266 -23.9395 23.9395 -23.9395h0.0615234h16
c0.0205078 0 0.0400391 -0.000976562 0.0605469 -0.000976562c13.2119 0 23.9395 10.7266 23.9395 23.9395v0.0615234v125.9l32.4004 -34.5c4.3916 -4.63965 10.6104 -7.53125 17.4971 -7.53125c6.63379 0 12.6445 2.68652 17.0029 7.03125z" />
    <glyph glyph-name="user-md-secondary" unicode="&#x10f0f0;" horiz-adv-x="448" 
d="M352 320c0 -70.6455 -57.3545 -128 -128 -128s-128 57.3545 -128 128s57.3545 128 128 128s128 -57.3545 128 -128zM144 77.4004c23.1191 -6.89355 40.0049 -28.3291 40.0049 -53.6758c0 -30.9072 -25.0928 -56 -56 -56s-56 25.0928 -56 56
c0 25.3467 16.876 46.7822 39.9951 53.6758v80.7295c7.32715 1.22949 14.7266 1.86816 22.4004 1.87012h9.59961v-82.5996zM128 0c0.0205078 0 0.0400391 -0.000976562 0.0605469 -0.000976562c13.2119 0 23.9395 10.7266 23.9395 23.9395v0.0615234
c0 13.2461 -10.7539 24 -24 24s-24 -10.7539 -24 -24s10.7539 -24 24 -24zM319.8 85.5996c27.501 -7.0293 47.9014 -31.9443 48 -61.5996v-32c-0.0146484 -4.40918 -1.80664 -8.40527 -4.7002 -11.2998l-10.2998 -10.2998
c-1.44727 -1.44434 -3.44727 -2.33789 -5.65137 -2.33789s-4.20117 0.893555 -5.64844 2.33789l-11.2998 11.2998c-1.44434 1.44727 -2.33789 3.44727 -2.33789 5.65137s0.893555 4.20117 2.33789 5.64844l5.7002 5.7002v23.5996
c0 15.9004 -10.9004 30.7002 -26.6006 33.2998c-1.7207 0.286133 -3.45801 0.431641 -5.25977 0.431641c-17.7021 0 -32.0811 -14.3428 -32.1396 -32.0312v-25.2998l5.69922 -5.7002c1.44434 -1.44727 2.33789 -3.44727 2.33789 -5.65137
s-0.893555 -4.20117 -2.33789 -5.64844l-11.2998 -11.2998c-1.44727 -1.44434 -3.44727 -2.33789 -5.65137 -2.33789s-4.20117 0.893555 -5.64844 2.33789l-10.2998 10.2998c-2.89355 2.89453 -4.68555 6.89062 -4.7002 11.2998v29.2002
c0 30.0996 19.7998 57.0996 48 64.5996v70.4102c3.0127 1.19336 5.97949 2.45703 8.90039 3.79004h16.6992c2.08008 0 4.14062 -0.0498047 6.2002 -0.150391v-74.25z" />
    <glyph glyph-name="sliders-h-secondary" unicode="&#x10f1de;" horiz-adv-x="512" 
d="M496 384c8.83105 0 16 -7.16895 16 -16v-32c0 -8.83105 -7.16895 -16 -16 -16h-208v64h208zM16 320c-8.83105 0 -16 7.16895 -16 16v32c0 8.83105 7.16895 16 16 16h176v-64h-176zM16 160c-8.83105 0 -16 7.16895 -16 16v32c0 8.83105 7.16895 16 16 16h304v-64h-304z
M496 224c8.83105 0 16 -7.16895 16 -16v-32c0 -8.83105 -7.16895 -16 -16 -16h-80v64h80zM496 64c8.83105 0 16 -7.16895 16 -16v-32c0 -8.83105 -7.16895 -16 -16 -16h-336v64h336zM0 48c0 8.83105 7.16895 16 16 16h48v-64h-48c-8.83105 0 -16 7.16895 -16 16v32z" />
    <glyph glyph-name="user-secret-secondary" unicode="&#x10f21b;" horiz-adv-x="448" 
d="M255.38 26.7803l-31.3799 -58.7803l-31.3799 58.7803l15.3799 69.2197l-17.79 35.5801c10.9316 -2.34277 22.2734 -3.57617 33.9004 -3.57617s22.748 1.2334 33.6797 3.57617l-17.79 -35.5801zM224 160c-70.373 0 -127.561 56.9297 -128 127.2
c7.5 -1.54004 15.5195 -2.9502 24 -4.2002v-6.58008c0 -0.110352 5.95996 -3.58008 6.82031 -6.28027c4.12012 -12.8994 7.58984 -26.6494 17.8799 -36.1895c8.66992 -8.00977 50.9199 -27.2998 69.3301 27.0898c3.13965 9.09961 16.8301 9.09961 19.8301 0
c17.3301 -51.3496 58.3896 -37.1602 69.3301 -27.0898c10.29 9.54004 13.6494 23.29 17.8799 36.1895c0.859375 2.81055 6.81934 6.16992 6.92969 6.28027v6.58984c8.49023 1.2002 16.5098 2.66016 24 4.2002c-0.433594 -70.2754 -57.623 -127.21 -128 -127.21z" />
    <glyph glyph-name="user-plus-secondary" unicode="&#x10f234;" 
d="M640 224v-32c0 -8.83105 -7.16895 -16 -16 -16h-64v-64c0 -8.83105 -7.16895 -16 -16 -16h-32c-8.83105 0 -16 7.16895 -16 16v64h-64c-8.83105 0 -16 7.16895 -16 16v32c0 8.83105 7.16895 16 16 16h64v64c0 8.83105 7.16895 16 16 16h32c8.83105 0 16 -7.16895 16 -16
v-64h64c8.83105 0 16 -7.16895 16 -16z" />
    <glyph glyph-name="user-times-secondary" unicode="&#x10f235;" 
d="M635.2 253.6l-45.6006 -45.5996l45.6006 -45.5996c2.9209 -2.91699 4.72949 -6.94824 4.72949 -11.3984s-1.80859 -8.48535 -4.72949 -11.4023l-22.7998 -22.7998c-2.91699 -2.9209 -6.94824 -4.72949 -11.3984 -4.72949s-8.48535 1.80859 -11.4023 4.72949
l-45.5996 45.6006l-45.5996 -45.6006c-2.91699 -2.9209 -6.94824 -4.72949 -11.3984 -4.72949s-8.48535 1.80859 -11.4023 4.72949l-22.7998 22.7998c-2.9209 2.91699 -4.72949 6.94824 -4.72949 11.3984s1.80859 8.48535 4.72949 11.4023l45.6006 45.5996l-45.6006 45.5996
c-2.9209 2.91699 -4.72949 6.94824 -4.72949 11.3984s1.80859 8.48535 4.72949 11.4023l22.7998 22.7998c2.91699 2.9209 6.94824 4.72949 11.3984 4.72949s8.48535 -1.80859 11.4023 -4.72949l45.5996 -45.6006l45.5996 45.6006
c2.91699 2.9209 6.94824 4.72949 11.3984 4.72949s8.48535 -1.80859 11.4023 -4.72949l22.7998 -22.7998c2.9209 -2.91699 4.72949 -6.94824 4.72949 -11.3984s-1.80859 -8.48535 -4.72949 -11.4023z" />
    <glyph glyph-name="cloud-download-alt-secondary" unicode="&#x10f381;" 
d="M537.6 221.4c58.3154 -11.9365 102.331 -63.5791 102.331 -125.4c0 -70.6221 -57.3174 -127.963 -127.931 -128h-368c-0.0625 0 -0.163086 -0.0429688 -0.225586 -0.0429688c-79.4766 0 -144 64.5244 -144 144c0 62.8076 40.2969 116.277 96.4258 135.943
c-0.100586 2.69922 -0.200195 5.39941 -0.200195 8.09961c0 0.0126953 -0.101562 0.195312 -0.101562 0.207031c0 88.3066 71.6934 160 160 160c59.3398 0 111.178 -32.373 138.802 -80.4072c15.1924 10.1943 33.5615 16.2002 53.2158 16.2002h0.0839844
c52.9941 -0.0595703 95.9658 -43.1494 95.9658 -96.1572c0 -12.1357 -2.25391 -23.748 -6.36621 -34.4424zM404.7 132.7c10.0996 10.0996 2.89941 27.2998 -11.2998 27.2998h-65.4004v112c0 8.83105 -7.16895 16 -16 16h-48c-8.83105 0 -16 -7.16895 -16 -16v-112h-65.4004
c-14.1992 0 -21.3994 -17.2002 -11.2998 -27.2998l105.4 -105.4c2.90234 -2.87402 6.89941 -4.64941 11.3027 -4.64941s8.39453 1.77539 11.2969 4.64941z" />
    <glyph glyph-name="cloud-upload-alt-secondary" unicode="&#x10f382;" 
d="M537.6 221.4c58.3154 -11.9365 102.331 -63.5791 102.331 -125.4c0 -70.6221 -57.3174 -127.963 -127.931 -128h-368c-0.0625 0 -0.163086 -0.0429688 -0.225586 -0.0429688c-79.4766 0 -144 64.5244 -144 144c0 62.8076 40.2969 116.277 96.4258 135.943
c-0.100586 2.69922 -0.200195 5.39941 -0.200195 8.09961c0 0.0126953 -0.101562 0.195312 -0.101562 0.207031c0 88.3066 71.6934 160 160 160c59.3398 0 111.178 -32.373 138.802 -80.4072c15.1924 10.1943 33.5615 16.2002 53.2158 16.2002h0.0839844
c52.9941 -0.0595703 95.9658 -43.1494 95.9658 -96.1572c0 -12.1357 -2.25391 -23.748 -6.36621 -34.4424zM393.4 160c14.1992 0 21.3994 17.2002 11.2998 27.2998l-105.4 105.4c-2.90234 2.87402 -6.89941 4.64941 -11.3027 4.64941s-8.39453 -1.77539 -11.2969 -4.64941
l-105.4 -105.4c-2.8877 -2.89453 -4.67188 -6.8916 -4.67188 -11.2998c0 -8.82129 7.1543 -15.9854 15.9717 -16h65.4004v-112c0 -8.83105 7.16895 -16 16 -16h48c8.83105 0 16 7.16895 16 16v112h65.4004z" />
    <glyph glyph-name="sliders-v-secondary" unicode="&#x10f3f1;" horiz-adv-x="448" 
d="M80 448c8.83105 0 16 -7.16895 16 -16v-80h-64v80c0 8.83105 7.16895 16 16 16h32zM192 -48v48h64v-48c0 -8.83105 -7.16895 -16 -16 -16h-32c-8.83105 0 -16 7.16895 -16 16zM32 -48v304h64v-304c0 -8.83105 -7.16895 -16 -16 -16h-32c-8.83105 0 -16 7.16895 -16 16z
M240 448c8.83105 0 16 -7.16895 16 -16v-336h-64v336c0 8.83105 7.16895 16 16 16h32zM352 -48v176h64v-176c0 -8.83105 -7.16895 -16 -16 -16h-32c-8.83105 0 -16 7.16895 -16 16zM400 448c8.83105 0 16 -7.16895 16 -16v-208h-64v208c0 8.83105 7.16895 16 16 16h32z" />
    <glyph glyph-name="user-alt-secondary" unicode="&#x10f406;" horiz-adv-x="512" 
d="M400 304c0 -79.4756 -64.5244 -144 -144 -144s-144 64.5244 -144 144s64.5244 144 144 144s144 -64.5244 144 -144z" />
    <glyph glyph-name="user-alt-slash-secondary" unicode="&#x10f4fa;" 
d="M180.6 340.16c16.0801 61.9658 72.4316 107.777 139.398 107.777c79.4756 0 144 -64.5244 144 -144c0 -54.0869 -29.7451 -101.104 -73.8877 -125.718zM198.37 128h47.3994l248.431 -192h-382.2c-26.4922 0 -48 21.5078 -48 48v9.59961
c0.0166016 74.1602 60.2139 134.367 134.37 134.4z" />
    <glyph glyph-name="user-astronaut-secondary" unicode="&#x10f4fb;" horiz-adv-x="448" 
d="M296 352c26.5 0 48 -17.9004 48 -40v-24c0 -52.9834 -43.0166 -96 -96 -96h-48c-52.9834 0 -96 43.0166 -96 96v24c0 22.0996 21.5 40 48 40h144zM188 276l36 12l-36 12l-12 36l-12 -36l-36 -12l36 -12l12 -36zM176 0c8.83105 0 16 -7.16895 16 -16v-48h-32v48
c0 8.83105 7.16895 16 16 16zM272 0c8.83105 0 16 -7.16895 16 -16s-7.16895 -16 -16 -16s-16 7.16895 -16 16s7.16895 16 16 16z" />
    <glyph glyph-name="user-check-secondary" unicode="&#x10f4fc;" 
d="M636.6 288.4c2.09277 -2.16113 3.38184 -5.10449 3.38184 -8.34668c0 -3.29395 -1.3291 -6.28418 -3.48145 -8.4541l-141.3 -140.199c-2.14355 -2.12598 -5.09375 -3.43945 -8.34863 -3.43945c-3.30566 0 -6.2998 1.35449 -8.45117 3.53906l-81.7002 82.2998
c-2.12598 2.14355 -3.43945 5.09375 -3.43945 8.34863c0 3.30566 1.35449 6.2998 3.53906 8.45117l28.1006 27.9004c2.14355 2.12598 5.09375 3.43945 8.34766 3.43945c3.30566 0 6.2998 -1.35449 8.45215 -3.53906l45.5 -45.8008l104.8 104
c2.14355 2.12598 5.09375 3.43945 8.34863 3.43945c3.30469 0 6.2998 -1.35449 8.45117 -3.53906z" />
    <glyph glyph-name="user-clock-secondary" unicode="&#x10f4fd;" 
d="M496 224c0.0302734 0 0.0595703 0.00195312 0.0898438 0.00195312c79.4268 0 143.91 -64.4844 143.91 -143.91v-0.0917969c0 -79.4756 -64.5244 -144 -144 -144s-144 64.5244 -144 144s64.5244 144 144 144zM560 73.7002v12.5996
c-0.0380859 5.33594 -4.36426 9.66211 -9.7002 9.7002h-38.2998v54.2998c-0.0380859 5.33594 -4.36426 9.66211 -9.7002 9.7002h-12.5996c-5.33594 -0.0380859 -9.66211 -4.36426 -9.7002 -9.7002v-76.5996c0.0380859 -5.33594 4.36426 -9.66211 9.7002 -9.7002h60.5996
c5.33594 0.0380859 9.66211 4.36426 9.7002 9.7002z" />
    <glyph glyph-name="user-cog-secondary" unicode="&#x10f4fe;" 
d="M636.3 59.7998c2.17188 -1.28223 3.62109 -3.64258 3.62109 -6.3457c0 -0.749023 -0.112305 -1.47266 -0.321289 -2.1543c-6.72363 -21.6143 -18.1855 -41.1904 -33.1992 -57.3994c-1.33691 -1.45215 -3.25977 -2.35547 -5.38672 -2.35547
c-1.31445 0 -2.54785 0.347656 -3.61328 0.955078l-25.8008 14.9004c-10.7842 -9.19531 -23.2793 -16.4668 -36.8994 -21.3008v-29.7998c-0.00292969 -3.4707 -2.44531 -6.37598 -5.7002 -7.09961c-10.6816 -2.40234 -21.6045 -3.66992 -33.0068 -3.66992
s-22.5117 1.26758 -33.1934 3.66992c-3.25488 0.723633 -5.69629 3.62891 -5.7002 7.09961v29.7998c-13.6191 4.83398 -26.1152 12.1055 -36.8994 21.3008l-25.7998 -14.9004c-1.06641 -0.611328 -2.30859 -0.967773 -3.625 -0.967773
c-2.12695 0 -4.04199 0.913086 -5.375 2.36816c-14.9961 16.2246 -26.4531 35.7969 -33.2002 57.3994c-0.224609 0.698242 -0.354492 1.43848 -0.354492 2.20996c0 2.69238 1.47168 5.04297 3.6543 6.29004l25.7998 14.9004
c-1.28125 6.93945 -1.95117 13.8916 -1.95117 21.1992c0 7.30859 0.669922 14.4609 1.95117 21.4004l-25.7998 14.9004c-2.17188 1.28223 -3.62012 3.64258 -3.62012 6.3457c0 0.749023 0.111328 1.47266 0.320312 2.1543c6.72461 21.6143 18.1855 41.1904 33.2002 57.3994
c1.33594 1.45215 3.25977 2.35547 5.38672 2.35547c1.31348 0 2.54688 -0.347656 3.61328 -0.955078l25.7998 -14.9004c10.7842 9.19531 23.2803 16.4668 36.8994 21.3008v29.7998c0.00390625 3.4707 2.44531 6.37598 5.7002 7.09961
c10.6816 2.40234 21.6045 3.66992 33.0068 3.66992c11.4033 0 22.5117 -1.26758 33.1934 -3.66992c3.25488 -0.723633 5.69727 -3.62891 5.7002 -7.09961v-29.7998c13.6201 -4.83398 26.1152 -12.1055 36.8994 -21.3008l25.8008 14.9004
c1.06543 0.611328 2.30762 0.967773 3.62402 0.967773c2.12695 0 4.04199 -0.913086 5.37598 -2.36816c15.0137 -16.209 26.4756 -35.7852 33.1992 -57.3994c0.224609 -0.698242 0.355469 -1.43848 0.355469 -2.20996c0 -2.69238 -1.47266 -5.04297 -3.65527 -6.29004
l-25.7998 -14.9004c1.28125 -6.93945 1.95117 -13.8916 1.95117 -21.1992c0 -7.30859 -0.669922 -14.4609 -1.95117 -21.4004zM496 47.5c26.7549 0.0273438 48.4727 21.7451 48.5 48.5c0 26.7676 -21.7324 48.5 -48.5 48.5s-48.5 -21.7324 -48.5 -48.5
s21.7324 -48.5 48.5 -48.5z" />
    <glyph glyph-name="user-edit-secondary" unicode="&#x10f4ff;" 
d="M358.9 14.7002l137.899 137.8l71.7002 -71.7002l-137.9 -137.899l-60.8994 -6.80078c-0.589844 -0.0664062 -1.17383 -0.116211 -1.78027 -0.116211c-8.78711 0 -15.9199 7.13379 -15.9199 15.9199c0 0.607422 0.0332031 1.20703 0.0996094 1.79688zM633 179.1
c4.31348 -4.35156 6.97852 -10.3477 6.97852 -16.9531c0 -6.60645 -2.66504 -12.5938 -6.97852 -16.9463l-41.7998 -41.7998l-71.7998 71.6992l4.09961 4.10059l37.7998 37.7998c4.33887 4.30273 10.3174 6.96191 16.9043 6.96191s12.5576 -2.65918 16.8955 -6.96191z" />
    <glyph glyph-name="user-friends-secondary" unicode="&#x10f500;" 
d="M480 192c-52.9834 0 -96 43.0166 -96 96s43.0166 96 96 96s96 -43.0166 96 -96s-43.0166 -96 -96 -96zM528 160c0.0205078 0 0.0400391 0.000976562 0.0595703 0.000976562c61.7822 0 111.94 -50.1582 111.94 -111.939v-0.0615234c0 -26.4922 -21.5078 -48 -48 -48
h-176.6c0.0996094 2.09961 0.599609 4.2002 0.599609 6.40039v38.3994c0 38.6006 -15.2998 73.5 -39.7002 99.7998c16.5 9.5 35.2998 15.4004 55.7002 15.4004h3.7998c13.9004 -4.7998 28.6006 -8 44.2002 -8s30.2998 3.2002 44.2002 8h3.7998z" />
    <glyph glyph-name="user-graduate-secondary" unicode="&#x10f501;" horiz-adv-x="448" 
d="M351.75 280c-4.18555 -66.876 -59.8232 -119.897 -127.747 -119.897s-123.567 53.0215 -127.753 119.897h255.5z" />
    <glyph glyph-name="user-minus-secondary" unicode="&#x10f503;" 
d="M640 224v-32c0 -8.83105 -7.16895 -16 -16 -16h-192c-8.83105 0 -16 7.16895 -16 16v32c0 8.83105 7.16895 16 16 16h192c8.83105 0 16 -7.16895 16 -16z" />
    <glyph glyph-name="user-ninja-secondary" unicode="&#x10f504;" horiz-adv-x="448" 
d="M304 320h-160c0 17.6611 14.3389 32 32 32h96c17.6611 0 32 -14.3389 32 -32z" />
    <glyph glyph-name="user-shield-secondary" unicode="&#x10f505;" 
d="M622.3 176.9c10.7002 -4.2002 17.7002 -14 17.7002 -24.9004c0 -124.5 -81.5996 -193.9 -132.9 -213.9c-3.44238 -1.32031 -7.20996 -2.04297 -11.1152 -2.04297c-3.9043 0 -7.6416 0.722656 -11.084 2.04297c-64.2002 25.1006 -132.9 102.301 -132.9 213.9
c0 10.9004 7 20.7002 17.7002 24.9004l115.2 45c3.44238 1.32031 7.20996 2.04297 11.1152 2.04297c3.9043 0 7.6416 -0.722656 11.084 -2.04297zM496 -14.4004c34.5996 16.4004 89.9004 64.7002 95.5 151.801l-95.5 37.2998v-189.101z" />
    <glyph glyph-name="user-slash-secondary" unicode="&#x10f506;" 
d="M192.47 331c5.6582 65.4326 60.6318 116.85 127.521 116.85c70.6445 0 128 -57.3555 128 -128c0 -55.6543 -35.5527 -102.896 -85.2002 -120.51zM96 25.5996c0 66.4004 48.1699 121.101 111.37 132.101l286.83 -221.7h-350.2c-26.4922 0 -48 21.5078 -48 48v41.5996z" />
    <glyph glyph-name="user-tag-secondary" unicode="&#x10f507;" 
d="M630.6 83.0996c5.78516 -5.76562 9.36816 -13.748 9.36816 -22.5537c0 -8.85547 -3.62402 -16.8721 -9.46777 -22.6455l-92.5 -92.5c-5.79395 -5.80566 -13.8125 -9.40039 -22.6543 -9.40039s-16.8516 3.59473 -22.6455 9.40039l-90.2998 90.1992
c-11.5566 11.5488 -18.7002 27.5098 -18.7002 45.1221v0.078125v79.2002c0 17.6611 14.3389 32 32 32h79.2998c0.0302734 0 0.0683594 0.00878906 0.0996094 0.00878906c17.6377 0 33.6191 -7.15039 45.2002 -18.709zM447.8 104.1
c0.0205078 0 0.0400391 -0.000976562 0.0605469 -0.000976562c13.2129 0 23.9395 10.7275 23.9395 23.9404v0.0605469c0 13.2461 -10.7539 24 -24 24s-24 -10.7539 -24 -24c0 -13.2451 10.7539 -24 24 -24z" />
    <glyph glyph-name="user-tie-secondary" unicode="&#x10f508;" horiz-adv-x="448" 
d="M191.35 33.2305l16.6504 70.7695l-32 56h96l-32 -56l16.6504 -70.7695l-32.6504 -65.2305zM224 192c-70.6455 0 -128 57.3545 -128 128s57.3545 128 128 128s128 -57.3545 128 -128s-57.3545 -128 -128 -128z" />
    <glyph glyph-name="users-cog-secondary" unicode="&#x10f509;" 
d="M636.3 91.9004c2.17188 -1.2832 3.62109 -3.64355 3.62109 -6.3457c0 -0.75 -0.112305 -1.47266 -0.321289 -2.1543c-6.72363 -21.6152 -18.1855 -41.1914 -33.1992 -57.4004c-1.33691 -1.45215 -3.25977 -2.35547 -5.38672 -2.35547
c-1.31445 0 -2.54785 0.347656 -3.61328 0.955078l-25.8008 14.9004c-10.7842 -9.19434 -23.2793 -16.4658 -36.8994 -21.2998v-29.7998c-0.00292969 -3.47168 -2.44531 -6.37695 -5.7002 -7.10059c-10.6816 -2.40137 -21.6045 -3.66895 -33.0068 -3.66895
s-22.5117 1.26758 -33.1934 3.66895c-3.25488 0.723633 -5.69629 3.62891 -5.7002 7.10059v29.7998c-13.6191 4.83398 -26.1152 12.1055 -36.8994 21.2998l-25.7998 -14.9004c-1.06641 -0.610352 -2.30859 -0.967773 -3.625 -0.967773
c-2.12695 0 -4.04199 0.913086 -5.375 2.36816c-14.9961 16.2256 -26.4531 35.7969 -33.2002 57.4004c-0.224609 0.697266 -0.354492 1.4375 -0.354492 2.20996c0 2.69141 1.47168 5.04199 3.6543 6.29004l25.7998 14.8994
c-1.28125 6.93945 -1.95117 13.8916 -1.95117 21.2002c0 7.30762 0.669922 14.4609 1.95117 21.4004l-25.7998 14.8994c-2.17188 1.2832 -3.62012 3.64258 -3.62012 6.3457c0 0.749023 0.111328 1.47266 0.320312 2.1543c6.72461 21.6152 18.1855 41.1904 33.2002 57.4004
c1.33594 1.45215 3.25977 2.35547 5.38672 2.35547c1.31348 0 2.54688 -0.347656 3.61328 -0.956055l25.7998 -14.8994c10.7842 9.19434 23.2803 16.4658 36.8994 21.2998v29.7998c0.00390625 3.4707 2.44531 6.37695 5.7002 7.10059
c10.6816 2.40137 21.6045 3.66895 33.0068 3.66895c11.4033 0 22.5117 -1.26758 33.1934 -3.66895c3.25488 -0.723633 5.69727 -3.62988 5.7002 -7.10059v-29.7998c13.6201 -4.83398 26.1152 -12.1055 36.8994 -21.2998l25.8008 14.8994
c1.06543 0.611328 2.30762 0.96875 3.62402 0.96875c2.12695 0 4.04199 -0.913086 5.37598 -2.36816c15.0137 -16.21 26.4756 -35.7852 33.1992 -57.4004c0.224609 -0.697266 0.355469 -1.4375 0.355469 -2.20996c0 -2.69141 -1.47266 -5.04199 -3.65527 -6.29004
l-25.7998 -14.8994c1.28125 -6.93945 1.95117 -13.8916 1.95117 -21.2002c0 -7.30762 -0.669922 -14.4609 -1.95117 -21.4004zM496 79.5996c26.7549 0.0283203 48.4727 21.7451 48.5 48.5c0 26.7686 -21.7324 48.5 -48.5 48.5s-48.5 -21.7314 -48.5 -48.5
c0 -26.7676 21.7324 -48.5 48.5 -48.5z" />
  </font>
</defs>
</svg>
