<?xml version="1.0" standalone="no"?>
<!DOCTYPE svg PUBLIC "-//W3C//DTD SVG 1.1//EN" "http://www.w3.org/Graphics/SVG/1.1/DTD/svg11.dtd" >
<svg xmlns="http://www.w3.org/2000/svg" xmlns:xlink="http://www.w3.org/1999/xlink" version="1.1">
<metadata>
Created by FontForge 20200314 at Wed Jan 13 11:59:44 2021
 By Robert Madole
Copyright (c) Font Awesome
</metadata>
<!-- Font Awesome Pro 5.15.2 by @fontawesome - https://fontawesome.com License - https://fontawesome.com/license (Commercial License) --><defs>
<font id="FontAwesome5Duotone-Solid" horiz-adv-x="512" >
  <font-face 
    font-family="Font Awesome 5 Duotone Solid"
    font-weight="900"
    font-stretch="normal"
    units-per-em="512"
    panose-1="2 0 5 3 0 0 0 0 0 0"
    ascent="448"
    descent="-64"
    bbox="-0.579102 -64.5879 640.047 448.04"
    underline-thickness="25"
    underline-position="-50"
    unicode-range="U+0020-10F8FF"
  />
    <missing-glyph />
    <glyph glyph-name="book-heart-primary" unicode="&#xf499;" horiz-adv-x="448" 
d="M96 64c-16 0 -32 -12.7998 -32 -32s12.7998 -32 32 -32h328c13.2461 0 24 -10.7539 24 -24v-16c0 -13.2461 -10.7539 -24 -24 -24h-328c-52.9834 0 -96 43.0166 -96 96v320c0 52.9834 43.0166 96 96 96h320c17.6611 0 32 -14.3389 32 -32v-328
c0 -13.2461 -10.7539 -24 -24 -24h-328zM149.8 338.9c-13.3516 -11.1465 -21.8213 -27.9062 -21.8213 -46.6416c0 -16.5176 6.60742 -31.5049 17.3213 -42.459l84.7002 -85.5996c2.52637 -2.54883 6.0332 -4.12891 9.90137 -4.12891
c3.86914 0 7.37207 1.58008 9.89844 4.12891l84.7002 85.5996c10.792 10.9521 17.4863 25.9766 17.4863 42.5518c0 18.6914 -8.47461 35.4189 -21.7861 46.5488c-23.9004 20 -59.6006 16.3994 -81.6006 -5.80078l-8.59961 -8.69922l-8.59961 8.69922
c-21.9004 22.2002 -57.6006 25.8008 -81.6006 5.80078z" />
    <glyph glyph-name="menorah-primary" unicode="&#xf676;" horiz-adv-x="640" 
d="M160 304v-144h-64v144c0 8.83105 7.16895 16 16 16h32c8.83105 0 16 -7.16895 16 -16zM448 304v-144h-64v144c0 8.83105 7.16895 16 16 16h32c8.83105 0 16 -7.16895 16 -16zM256 304v-144h-64v144c0 8.83105 7.16895 16 16 16h32c8.83105 0 16 -7.16895 16 -16zM544 304
v-144h-64v144c0 8.83105 7.16895 16 16 16h32c8.83105 0 16 -7.16895 16 -16zM624 320c8.83105 0 16 -7.16895 16 -16v-144c0 -52.9834 -43.0166 -96 -96 -96h-192v-64h176c8.83105 0 16 -7.16895 16 -16v-32c0 -8.83105 -7.16895 -16 -16 -16h-416
c-8.83105 0 -16 7.16895 -16 16v32c0 8.83105 7.16895 16 16 16h176v64h-192c-52.9834 0 -96 43.0166 -96 96v144c0 8.83105 7.16895 16 16 16h32c8.83105 0 16 -7.16895 16 -16v-144c0 -17.6611 14.3389 -32 32 -32h192v176c0 8.83105 7.16895 16 16 16h32
c8.83105 0 16 -7.16895 16 -16v-176h192c17.6611 0 32 14.3389 32 32v144c0 8.83105 7.16895 16 16 16h32z" />
    <glyph glyph-name="acorn-primary" unicode="&#xf6ae;" horiz-adv-x="448" 
d="M448 288v-32c0 -17.6611 -14.3389 -32 -32 -32h-384c-17.6611 0 -32 14.3389 -32 32v32c0 52.9834 43.0166 96 96 96h106c4.80273 22.041 15.125 42.1943 29.4102 58.6396c2.78223 3.15039 6.8125 5.16895 11.3096 5.30078
c0.290039 0.015625 0.583008 0.0244141 0.876953 0.0244141c4.37305 0 8.3125 -1.81934 11.123 -4.74512l11.2803 -11.3193c2.88867 -2.89551 4.67578 -6.89062 4.67578 -11.2998c0 -4.05957 -1.52051 -7.77832 -4.01562 -10.6006
c-6.50684 -7.61133 -11.6758 -16.4092 -15.1602 -26h100.5c52.9834 0 96 -43.0166 96 -96z" />
    <glyph glyph-name="alicorn-primary" unicode="&#xf6b0;" horiz-adv-x="640" 
d="M535.34 393.2c5.33203 -5.68262 8.60059 -13.333 8.60059 -21.7314v-0.0683594l0.0595703 -77.71c0 -0.0136719 0.0185547 -0.0126953 0.0185547 -0.0263672c0 -13.4785 -8.35156 -25.0225 -20.1582 -29.7344l-32.5508 -13
c-3.66895 -1.46777 -7.67383 -2.31934 -11.8643 -2.31934c-12.5195 0 -23.3682 7.2041 -28.625 17.6895l-18.9004 37.7002l-16 7.11035v-102.471c0.00976562 -0.219727 0.0800781 -0.419922 0.0800781 -0.639648c0 -0.00683594 0.0107422 -0.0341797 0.0107422 -0.0410156
c0 -30.4375 -12.2168 -58.0439 -32.0107 -78.1787v-177.78c0 -8.83105 -7.16895 -16 -16 -16h-64c-8.83105 0 -16 7.16895 -16 16v150.42l-102 22.3105l-23.8096 -63.5908l26.3291 -105.26c0.311523 -1.24414 0.477539 -2.53906 0.477539 -3.87988
c0 -8.83008 -7.16797 -15.999 -15.9971 -16h-66c-7.47363 0.0136719 -13.75 5.16992 -15.4902 12.1104l-24.8496 99.4092c-1.24805 4.9834 -1.89355 10.1973 -1.89355 15.5645c0 7.89258 1.43359 15.4541 4.05371 22.4355l25.6299 68.3906
c-18.751 17.5254 -30.5293 42.4229 -30.5293 70.0879c0 31.5098 15.2129 59.4941 38.6895 77.002c14.6396 -35.7002 56.5195 -109 153.39 -109c-77 14.6504 -128 83.9004 -128 150.9c0 0.0136719 0.0869141 0.169922 0.0869141 0.18457
c0 24.209 5.44336 47.1572 15.1729 67.6846c3.39062 7.26074 13.7803 6.85059 17 -0.5c23.46 -53.4893 63.7402 -90.2695 127.66 -90.2695h0.0800781c0 64 58.6699 128 127.9 128h120c4.45996 -0.00585938 8.0791 -3.62207 8.0791 -8.08398
c0 -0.532227 -0.0507812 -1.05273 -0.149414 -1.55566c-2.67969 -13.1699 -11.1201 -23.8203 -22.1797 -30.6602c5.10938 -5.37988 9.90918 -10.5 13.6895 -14.5zM479.92 352c8.83105 0 16 7.16895 16 16s-7.16895 16 -16 16c-8.83008 0 -16 -7.16895 -16 -16
s7.16992 -16 16 -16z" />
    <glyph glyph-name="apple-crate-primary" unicode="&#xf6b1;" 
d="M496 224c8.83105 0 16 -7.16895 16 -16v-112h-512v112c0 8.83105 7.16895 16 16 16h480zM64 144c8.83105 0 16 7.16895 16 16s-7.16895 16 -16 16s-16 -7.16895 -16 -16s7.16895 -16 16 -16zM448 144c8.83105 0 16 7.16895 16 16s-7.16895 16 -16 16
s-16 -7.16895 -16 -16s7.16895 -16 16 -16zM0 -48v112h512v-112c0 -8.83105 -7.16895 -16 -16 -16h-480c-8.83105 0 -16 7.16895 -16 16zM448 16c-8.83105 0 -16 -7.16895 -16 -16s7.16895 -16 16 -16s16 7.16895 16 16s-7.16895 16 -16 16zM64 16
c-8.83105 0 -16 -7.16895 -16 -16s7.16895 -16 16 -16s16 7.16895 16 16s-7.16895 16 -16 16z" />
    <glyph glyph-name="axe-primary" unicode="&#xf6b2;" horiz-adv-x="640" 
d="M384 146.26l-150.63 150.63c-5.79102 5.79297 -9.375 13.791 -9.375 22.6211c0 8.8291 3.58398 16.8369 9.375 22.6289l96.4902 96.4902c5.79199 5.79395 13.793 9.37988 22.625 9.37988s16.8418 -3.58594 22.6348 -9.37988l150.62 -150.63h34.2598v-32
c0 -79.4004 -64.5996 -144 -144 -144h-32v34.2598z" />
    <glyph glyph-name="axe-battle-primary" unicode="&#xf6b3;" 
d="M288 368v-416c0 -8.83105 -7.16895 -16 -16 -16h-32c-8.83105 0 -16 7.16895 -16 16v416c0 8.83105 7.16895 16 16 16h32c8.83105 0 16 -7.16895 16 -16z" />
    <glyph glyph-name="bat-primary" unicode="&#xf6b5;" horiz-adv-x="640" 
d="M640 128l-49.6299 16.54c-6.36035 2.12012 -13.1621 3.26855 -20.2305 3.26855c-22.2207 0 -41.7832 -11.2666 -53.2598 -28.4785l-36.8799 -55.3301l-11.8203 11.8203c-11.584 11.584 -27.584 18.7539 -45.2461 18.7539c-17.6611 0 -33.6787 -7.16992 -45.2637 -18.7539
c-2.15137 -2.15918 -4.11328 -4.4209 -5.9502 -6.86035l-51.7197 -68.96l-51.7197 69c-11.6787 15.5713 -30.2871 25.6533 -51.2305 25.6533c-14.3789 0 -27.6797 -4.83594 -38.3701 -12.8535c-2.44043 -1.83398 -4.70312 -3.79688 -6.85938 -5.9502l-11.8203 -11.8496
l-36.8896 55.3301c-11.4766 17.2119 -31.0674 28.5596 -53.2871 28.5596c-7.06836 0 -13.8438 -1.22949 -20.2031 -3.34961l-49.6201 -16.54l81.5498 190.31c4.89453 11.4072 16.2314 19.4053 29.4229 19.4053c4.46094 0 8.71777 -0.953125 12.5771 -2.60449
c1.33203 -0.581055 2.62793 -1.25391 3.86035 -2l192.59 -115.511l192.56 115.53c4.80273 2.87988 10.4219 4.53613 16.4238 4.53613c11.665 0 21.8945 -6.2002 27.4863 -15.5361c0.74707 -1.23242 1.41895 -2.52832 2 -3.86035z" />
    <glyph glyph-name="blender-phone-primary" unicode="&#xf6b6;" horiz-adv-x="576" 
d="M158.8 113c0.776367 -1.89941 1.22852 -3.97754 1.22852 -6.1543c0 -5.91504 -3.1582 -11.0986 -7.87793 -13.9561l-39.4004 -24.1797c-12.54 -7.67969 -31.79 -6 -41.6602 4.7998c-44.0967 48.0117 -71.0156 112.248 -71.0156 182.511
c0 69.1387 26.0781 132.234 68.9258 179.979c11.0898 12.5 29.5098 15.8701 43.8398 7.08008l39.2803 -24.0801c4.73047 -2.85449 7.87109 -8.04297 7.87109 -13.9658c0 -2.16602 -0.422852 -4.2334 -1.19141 -6.12402l-25.7998 -63.2598
c-2.53223 -6.08105 -8.50879 -10.3496 -15.501 -10.3496c-0.586914 0 -1.16699 0.0302734 -1.73926 0.0888672l-45 4.41992c-8.42676 -23.0107 -13.0273 -48.0264 -13.0273 -73.9424s4.60059 -50.7656 13.0273 -73.7773l45 4.41992
c0.576172 0.0595703 1.13574 0.101562 1.72754 0.101562c6.98926 0 12.9873 -4.28125 15.5127 -10.3613zM480 64c35.3223 0 64 -28.6777 64 -64v-32c0 -17.6611 -14.3389 -32 -32 -32h-352c-17.6611 0 -32 14.3389 -32 32v32c0 35.3223 28.6777 64 64 64h288zM336 -32
c17.6611 0 32 14.3389 32 32s-14.3389 32 -32 32s-32 -14.3389 -32 -32s14.3389 -32 32 -32zM392 160c-4.41504 0 -8 3.58496 -8 8v16c0 4.41504 3.58496 8 8 8h114.18l-8.71973 -32h-105.46zM392 256c-4.41504 0 -8 3.58496 -8 8v16c0 4.41504 3.58496 8 8 8h140.36
l-8.7207 -32h-131.64zM392 384h166.54l-8.73047 -32h-157.81c-4.41504 0 -8 3.58496 -8 8v16c0 4.41504 3.58496 8 8 8z" />
    <glyph glyph-name="book-dead-primary" unicode="&#xf6b7;" horiz-adv-x="448" 
d="M208 312c-8.83105 0 -16 7.16895 -16 16s7.16895 16 16 16s16 -7.16895 16 -16s-7.16895 -16 -16 -16zM96 64c-16 0 -32 -12.7998 -32 -32s12.7998 -32 32 -32h328c13.2461 0 24 -10.7539 24 -24v-16c0 -13.2461 -10.7539 -24 -24 -24h-328
c-52.9834 0 -96 43.0166 -96 96v320c0 52.9834 43.0166 96 96 96h320c17.6611 0 32 -14.3389 32 -32v-328c0 -13.2461 -10.7539 -24 -24 -24h-328zM240 392c-44.2002 0 -80 -28.7002 -80 -64c0 -20.9004 12.7002 -39.2002 32 -50.9004v-13.0996
c0 -8.83105 7.16895 -16 16 -16h64c8.83105 0 16 7.16895 16 16v13.0996c19.2998 11.7002 32 30 32 50.9004c0 35.2998 -35.7998 64 -80 64zM124.8 224.7c-0.413086 -0.964844 -0.651367 -2.0293 -0.651367 -3.14453c0 -3.29785 2 -6.13184 4.85156 -7.35547l70.5 -30.2998
l-70.4004 -30.1006c-2.85156 -1.22363 -4.8418 -4.05957 -4.8418 -7.35742c0 -1.11523 0.229492 -2.17773 0.642578 -3.14258l6.2998 -14.7002c1.22363 -2.85156 4.05957 -4.8418 7.35742 -4.8418c1.11523 0 2.17773 0.229492 3.14258 0.642578l98.2998 42.1992
l98.2998 -42.0996c0.964844 -0.413086 2.0293 -0.651367 3.14453 -0.651367c3.29785 0 6.13184 2 7.35547 4.85156l6.2998 14.7002c0.413086 0.964844 0.651367 2.02832 0.651367 3.14355c0 3.29785 -1.99902 6.13281 -4.85059 7.35645l-70.3008 30.0996l70.3008 30.2002
c2.85156 1.22363 4.8418 4.05957 4.8418 7.35742c0 1.11523 -0.229492 2.17773 -0.642578 3.14258l-6.2998 14.7002c-1.22363 2.85156 -4.05957 4.8418 -7.35742 4.8418c-1.11523 0 -2.17773 -0.229492 -3.14258 -0.642578l-98.3994 -42.0996l-98.3008 42.0996
c-0.964844 0.413086 -2.02832 0.651367 -3.14355 0.651367c-3.29785 0 -6.13281 -1.99902 -7.35645 -4.85059zM272 312c-8.83105 0 -16 7.16895 -16 16s7.16895 16 16 16s16 -7.16895 16 -16s-7.16895 -16 -16 -16z" />
    <glyph glyph-name="book-spells-primary" unicode="&#xf6b8;" horiz-adv-x="448" 
d="M96 64c-16 0 -32 -12.7998 -32 -32s12.7998 -32 32 -32h328c13.2461 0 24 -10.7539 24 -24v-16c0 -13.2461 -10.7539 -24 -24 -24h-328c-52.9834 0 -96 43.0166 -96 96v320c0 52.9834 43.0166 96 96 96h320c17.6611 0 32 -14.3389 32 -32v-328
c0 -13.2461 -10.7539 -24 -24 -24h-328zM272 288l-26.6602 -53.3301l-53.3398 -26.6699l53.3398 -26.6699l26.6602 -53.3301l26.6602 53.3301l53.3398 26.6699l-53.3398 26.6699zM160 352l-32 -16l32 -16l16 -32l16 32l32 16l-32 16l-16 32z" />
    <glyph glyph-name="bow-arrow-primary" unicode="&#xf6b9;" 
d="M511.71 429.22l-25.71 -128.59c-1.44727 -7.1748 -7.79199 -12.585 -15.3906 -12.585c-4.33105 0 -8.25781 1.74414 -11.0996 4.58496l-34.5098 34.4502l-250.61 -250.64l16.6104 -49.7002c0.668945 -2.02734 1.03125 -4.19336 1.03125 -6.44434
c0 -5.68164 -2.30078 -10.833 -6.03125 -14.5557l-63.6797 -63.7402c-3.71973 -3.70801 -8.85059 -6.00195 -14.5127 -6.00195c-9.05469 0 -16.748 5.86523 -19.4873 14.002l-18.5898 55.7197l-55.6602 18.5498c-8.13672 2.74023 -14.0029 10.4355 -14.0029 19.4912
c0 5.66113 2.29492 10.7891 6.00293 14.5088l63.6299 63.7305c3.72559 3.72852 8.87305 6.03711 14.5557 6.03711c2.24805 0 4.41797 -0.369141 6.44434 -1.03711l49.7002 -16.5703l250.68 250.57l-34.4697 34.4805c-2.84082 2.84082 -4.59961 6.76562 -4.59961 11.0967
c0 7.59863 5.4248 13.9463 12.5996 15.3926l128.609 25.7207c0.99707 0.198242 2.02734 0.301758 3.08203 0.301758c8.67578 0 15.7197 -7.04395 15.7197 -15.7197c0 -1.04883 -0.115234 -2.06152 -0.311523 -3.05273z" />
    <glyph glyph-name="campfire-primary" unicode="&#xf6ba;" 
d="M511.28 -22.21l-9.35059 -30.5498c-1.90332 -6.47363 -7.89258 -11.2051 -14.9785 -11.2051c-1.61719 0 -3.17383 0.248047 -4.6416 0.705078l-226.31 72.2598l-226.31 -72.2598c-1.46777 -0.457031 -3.02734 -0.704102 -4.64453 -0.704102
c-7.08594 0 -13.0723 4.73047 -14.9756 11.2041l-9.35059 30.5498c-0.46582 1.50391 -0.717773 3.10156 -0.717773 4.75781c0 7.09766 4.6084 13.1211 10.998 15.2422l140 44.6797l-140 44.7207c-6.38965 2.12012 -11.0029 8.14844 -11.0029 15.2461
c0 1.65625 0.256836 3.25 0.722656 4.75391l9.35059 30.5498c1.90332 6.47266 7.89258 11.2051 14.9785 11.2051c1.61719 0 3.17383 -0.248047 4.6416 -0.705078l226.31 -72.2402l226.31 72.2402c1.46777 0.457031 3.02734 0.703125 4.64453 0.703125
c7.08594 0 13.0723 -4.73047 14.9756 -11.2031l9.35059 -30.5498c0.46582 -1.50391 0.717773 -3.10156 0.717773 -4.75781c0 -7.09766 -4.6084 -13.1221 -10.998 -15.2422l-140 -44.6807l140 -44.6797c6.39551 -2.11719 11.0146 -8.14844 11.0146 -15.25
c0 -1.66992 -0.260742 -3.27637 -0.734375 -4.79004z" />
    <glyph glyph-name="campground-primary" unicode="&#xf6bb;" horiz-adv-x="640" 
d="M40.6797 0l239.79 330.25l-53.4102 73.5498c-1.91602 2.63867 -3.04785 5.88379 -3.04785 9.39062c0 5.32422 2.58398 10.0508 6.58789 12.96l25.8809 18.7998c2.63672 1.91504 5.87988 3.04395 9.38574 3.04395c5.32617 0 10.0547 -2.58594 12.9639 -6.59375
l41.1699 -56.7002l41.1602 56.6895c2.9082 4.00879 7.63086 6.61719 12.958 6.61719c3.50488 0 6.75488 -1.15234 9.3916 -3.06641l25.9004 -18.79c4.02344 -2.90723 6.64355 -7.63867 6.64355 -12.9775c0 -3.49707 -1.14746 -6.73926 -3.05371 -9.37305l-53.4102 -73.5498
l239.73 -330.25h-163l-116.32 160l-116.36 -160h-162.96z" />
    <glyph glyph-name="candle-holder-primary" unicode="&#xf6bc;" horiz-adv-x="448" 
d="M256 192v-208h-192v208c0 17.6611 14.3389 32 32 32h32v-48c0 -8.83105 7.16895 -16 16 -16s16 7.16895 16 16v48h64c17.6611 0 32 -14.3389 32 -32z" />
    <glyph glyph-name="cauldron-primary" unicode="&#xf6bf;" horiz-adv-x="448" 
d="M434 224h-19.79c21.4004 -38.5195 33.79 -81.2803 33.79 -121.6c0 -39.0801 -11.8203 -70.6504 -32 -95.5303v-46.8701c0 -13.2461 -10.7539 -24 -24 -24s-24 10.7539 -24 24v7.49023c-38.9502 -21.2998 -89.1396 -31.4902 -144 -31.4902s-105 10.1904 -144 31.4902
v-7.49023c0 -13.2461 -10.7539 -24 -24 -24s-24 10.7539 -24 24v46.8701c-20.1797 24.8799 -32 56.4502 -32 95.5303c0 40.3193 12.3896 83.0801 33.79 121.6h-19.79c-7.73047 0 -14 5.37012 -14 12v40c0 6.62988 6.26953 12 14 12h82v-128c0 -17.6611 14.3389 -32 32 -32
s32 14.3389 32 32v128h274c7.73047 0 14 -5.37012 14 -12v-40c0 -6.62988 -6.26953 -12 -14 -12z" />
    <glyph glyph-name="claw-marks-primary" unicode="&#xf6c2;" 
d="M2.66992 432.87c-6.9502 6.9502 0.870117 18.4297 9.75 14.2197c36.0137 -17.3203 70.9756 -36.7783 104.47 -58.0898c4.94922 -3.12305 10.8389 -4.96484 17.1104 -5h58v-31.29v-0.0820312c0 -10.1504 4.7959 -19.168 12.2695 -24.918
c105.311 -81.6504 224.131 -204 306.86 -379.3c4.13965 -8.77051 -7.33984 -16.6201 -14.2002 -9.75977l-84 84c-5.79004 5.77832 -13.7812 9.35352 -22.5996 9.35352c-0.0126953 0 -0.0283203 -0.00390625 -0.0400391 -0.00390625h-38.29v38.29
c0 8.8291 -3.5791 16.8379 -9.37012 22.6299l-89.71 89.71c-5.79199 5.79102 -13.8008 9.37012 -22.6299 9.37012h-38.29v38.2803c0 8.8291 -3.5791 16.8379 -9.37012 22.6299z" />
    <glyph glyph-name="coffee-togo-primary" unicode="&#xf6c5;" horiz-adv-x="448" 
d="M69.3301 32l-13.3301 160h336l-13.3301 -160h-309.34zM432 384c8.83105 0 16 -7.16895 16 -16v-32c0 -8.83105 -7.16895 -16 -16 -16h-416c-8.83105 0 -16 7.16895 -16 16v32c0 8.83105 7.16895 16 16 16h16l23.1602 46.3096
c5.25 10.502 16.0898 17.6895 28.6201 17.6904h280.439c12.5303 -0.000976562 23.3701 -7.18848 28.6201 -17.6904l23.1602 -46.3096h16z" />
    <glyph glyph-name="corn-primary" unicode="&#xf6c7;" 
d="M423.85 88c4.94043 -4.25 2.52051 -12.5498 -3.91992 -13.8398l-97.6602 -19.5303l-90.5098 -90.5098c-17.377 -17.376 -41.4023 -28.1289 -67.8936 -28.1289c-26.4902 0 -50.4893 10.7529 -67.8662 28.1289l-45.2402 45.2598l67.8799 67.8301
c83.7207 83.71 217.21 87.3096 305.21 10.79zM201 163.15c-40.1172 -12.3604 -76.0508 -34.3008 -105 -63.2705l-67.8799 -67.8896c-17.3789 17.377 -28.1338 41.4043 -28.1338 67.8984c0 26.4932 10.7549 50.4941 28.1338 67.8711l90.4697 90.5098l19.54 97.6807
c1.29004 6.41992 9.58008 8.84961 13.8701 3.91016c48.21 -55.4502 64.4199 -128.95 49 -196.71z" />
    <glyph glyph-name="cow-primary" unicode="&#xf6c8;" horiz-adv-x="640" 
d="M634 171.28c3.7627 -5.19629 5.99902 -11.5869 5.99902 -18.4873c0 -2.11914 -0.209961 -4.19043 -0.609375 -6.19336l-21.7295 -108.6c-4.29297 -21.666 -23.3926 -38.1064 -46.3115 -38.1064c-16.4111 0 -30.8799 8.3877 -39.3486 21.1064l-41.29 62
c-6.74219 10.1367 -10.71 22.3652 -10.71 35.4414v0.078125v41.4805l-32 32v-176c0 -8.83105 -7.16895 -16 -16 -16h-64c-0.00683594 0 -0.0126953 0.0117188 -0.0195312 0.0117188c-8.5625 0 -15.5625 6.73926 -15.9805 15.1982v80.79c0 44.1533 -35.8467 80 -80 80
s-80 -35.8467 -80 -80v-80c0 -8.83105 -7.16895 -16 -16 -16h-64c-8.83105 0 -16 7.16895 -16 16v304c0 35.3223 28.6777 64 64 64h271c31.9795 -0.0185547 60.2725 -15.6201 77.71 -39.71l65.8203 -90.9004c6.87012 9.4707 15.5801 17.6807 26.4697 23.0908
c2.11133 1.02637 4.49609 1.60938 7 1.60938c8.83105 0 16 -7.16895 16 -16v-77zM377.23 280.64c15.7695 15.6299 2.2998 39.3604 -22.2305 39.3604h-166c-24.5303 0 -37.9502 -23.7305 -22.2305 -39.3604l22.8906 -22.7598
c21.0928 -20.9453 50.1553 -33.8799 82.2002 -33.8799h0.0595703h0.160156c0.0214844 0 0.0595703 -0.0136719 0.0810547 -0.0136719c32.0439 0 61.0869 12.9482 82.1787 33.8936zM576 96c8.83105 0 16 7.16895 16 16s-7.16895 16 -16 16s-16 -7.16895 -16 -16
s7.16895 -16 16 -16z" />
    <glyph glyph-name="dagger-primary" unicode="&#xf6cb;" horiz-adv-x="384" 
d="M290.94 256h-197.881c-6.60938 -18.5566 -24.3418 -31.8555 -45.1562 -31.8555c-26.4473 0 -47.9199 21.4727 -47.9199 47.9199c0 26.4482 21.4727 47.9199 47.9199 47.9199c0.0283203 0 0.0693359 0.015625 0.0966797 0.015625h112v112c0 8.83105 7.16895 16 16 16h32
c8.83105 0 16 -7.16895 16 -16v-112h112h0.198242c26.4922 0 48 -21.5078 48 -48c0 -26.4912 -21.5078 -48 -48 -48c-20.8877 0 -38.667 13.3574 -45.2578 32z" />
    <glyph glyph-name="dice-d10-primary" unicode="&#xf6cd;" 
d="M505.19 155.73c6.88965 -1.44043 9.19922 -10.5107 3.88965 -15.3301l-222.15 -202.2c-5.44922 -4.99023 -14 -0.930664 -14 6.66016v179.54l88.2002 61.4395zM6.80957 155.73l144.04 30.1094l88.2002 -61.4395v-179.521c0 -7.59961 -8.51953 -11.6699 -14 -6.66992
l-222.14 202.19c-5.2998 4.81934 -2.99023 13.8896 3.89941 15.3301z" />
    <glyph glyph-name="dice-d12-primary" unicode="&#xf6ce;" 
d="M256 174.11l108.58 -54.29l-58.8203 -183.82h-99.5293l-58.8203 183.82zM0 233.38l114 -113.939l55 -171.91l-85.9199 42.9395c-12.4072 6.19727 -22.4229 16.2129 -28.6201 28.6201l-47.7002 95.4004c-4.30078 8.58984 -6.75977 18.3438 -6.75977 28.5967v0.0234375
v90.2695zM398.05 119.38l113.95 113.99v-90.2705c-0.0166016 -10.2607 -2.48828 -20.0234 -6.7998 -28.6191l-47.7002 -95.4004c-6.20215 -12.4043 -16.2158 -22.418 -28.6201 -28.6201l-85.8799 -42.9404z" />
    <glyph glyph-name="dice-d20-primary" unicode="&#xf6cf;" horiz-adv-x="480" 
d="M106.75 232.94l108.64 -190.15l-208.26 22.0703c-3.99512 0.444336 -7.10938 3.8457 -7.10938 7.95898c0 1.53223 0.431641 2.96387 1.17969 4.18066zM7.41016 132.57c-0.704102 -1.14746 -1.9668 -1.90918 -3.41016 -1.90918c-2.20703 0 -3.99902 1.79199 -4 3.99902
v162.81c0 0.0078125 0.00390625 0.0117188 0.00390625 0.0185547c0 2.20801 1.79297 4 4 4c0.751953 0 1.45508 -0.207031 2.05566 -0.568359l76.6406 -46zM18.25 24.4004c-1.37793 0.631836 -2.33594 2.02148 -2.33594 3.63574c0 2.20703 1.79199 4 4 4
c0.181641 0 0.360352 -0.0126953 0.536133 -0.0361328l203.55 -22.3301v-65.6699c-0.00292969 -4.41309 -3.59277 -7.99121 -8.00684 -7.99121c-1.19336 0 -2.3252 0.261719 -3.34277 0.731445zM139.57 240h200.859l-100.43 -175.75zM480 134.66
c0 -0.00683594 0.00292969 -0.0166016 0.00292969 -0.0234375c0 -2.20801 -1.79297 -4 -4 -4c-1.44336 0 -2.70898 0.765625 -3.41309 1.91309l-75.29 122.351l76.6406 46c0.600586 0.360352 1.30859 0.571289 2.05957 0.571289c2.20801 0 4 -1.79297 4 -4v-0.00195312
v-162.81zM478.81 77c0.730469 -1.20703 1.14844 -2.63086 1.14844 -4.14258c0 -4.10352 -3.09668 -7.48926 -7.07812 -7.94727l-208.26 -22.0703l108.63 190.101zM459.55 32c0.175781 0.0234375 0.353516 0.0371094 0.535156 0.0371094c2.20801 0 4 -1.79199 4 -4
c0 -1.61328 -0.957031 -3.00488 -2.33496 -3.63672l-194.4 -87.6602c-1.01758 -0.469727 -2.15625 -0.735352 -3.34961 -0.735352c-4.41406 0 -7.99707 3.58203 -8 7.99512v65.6797z" />
    <glyph glyph-name="dice-d4-primary" unicode="&#xf6d0;" 
d="M272.2 -55.4697v494.939c0 8.12988 9.7998 11.6299 14.5195 5.19043l223.601 -306.141c1.06348 -1.45312 1.69238 -3.24512 1.69238 -5.18359c0 -2.64453 -1.16211 -5.02441 -3.0127 -6.63574l-223.63 -188.811c-5.2998 -4.46973 -13.1699 -0.509766 -13.1699 6.64062z
" />
    <glyph glyph-name="dice-d6-primary" unicode="&#xf6d1;" horiz-adv-x="448" 
d="M0 286.17c0 6.40039 6.63965 10.4199 12 7.25l196.05 -116.88v-223.81c0 -12.9004 -13.3799 -20.9209 -24.0498 -14.4404l-152.21 92.4795c-19.6797 11.9609 -31.79 33.9307 -31.79 57.7002v197.7zM436 293.42c5.36035 3.16992 12 -0.839844 12 -7.25v-197.7
c0 -23.7598 -12.1104 -45.7002 -31.79 -57.7002l-152.16 -92.4795c-10.6602 -6.49023 -24.0498 1.54004 -24.0498 14.4297v223.82z" />
    <glyph glyph-name="dice-d8-primary" unicode="&#xf6d2;" 
d="M469.87 151.39c8.20996 2.98047 14.7197 -7.38965 8.59961 -13.7695l-192 -199.101c-1.48828 -1.53027 -3.57031 -2.4834 -5.87109 -2.4834c-4.52051 0 -8.19043 3.66992 -8.19043 8.19043c0 0.0576172 0.000976562 0.116211 0.00195312 0.173828v135.31zM33.5303 137.62
c-6.12012 6.37988 0.389648 16.75 8.59961 13.7695l197.46 -71.6797v-135.31c0.000976562 -0.0576172 0.000976562 -0.114258 0.000976562 -0.172852c0 -4.51953 -3.66895 -8.18945 -8.18945 -8.18945c-2.30176 0 -4.38281 0.951172 -5.87109 2.48145z" />
    <glyph glyph-name="dragon-primary" unicode="&#xf6d5;" horiz-adv-x="640" 
d="M575.19 158.12c38.4814 -19.085 64.8506 -58.6221 64.8506 -104.455c0 -2.31836 -0.0673828 -4.62012 -0.201172 -6.90527c-3.38965 -63.2002 -59.71 -110.76 -123 -110.76h-499.08c-9.7207 0.107422 -17.5732 8.03125 -17.5732 17.7783
c0 8.41406 5.85742 15.4707 13.7139 17.3115c89.54 19.9102 238.51 54.1006 434.1 60.9102c-57.9863 38.6621 -96 104.562 -96 179.42v108.58l-59.5801 24.8896c-2.625 1.31348 -4.42871 4.01855 -4.42871 7.15039c0 3.13281 1.80371 5.84668 4.42871 7.16016
l59.5801 24.7998l-61.6602 50.3896c-1.4209 1.44434 -2.2959 3.42676 -2.2959 5.61035c0 4.40039 3.56055 7.97656 7.95605 8h237.47c0.0107422 0 0.00488281 0.0263672 0.015625 0.0263672c10.4531 0 19.7432 -5.02344 25.585 -12.7861l74.5801 -99.4199
c4 -5.34277 6.36816 -12.0322 6.36816 -19.2139c0 -5.13672 -1.21387 -9.99316 -3.36816 -14.2969l-14.3105 -28.6191c-5.25 -10.502 -16.0898 -17.6895 -28.6201 -17.6904h-31c-8.8291 0 -16.8379 3.5791 -22.6299 9.37012l-28.0898 22.6299h-64v-36.6504
c0.00390625 -18.79 10.7822 -35.0439 26.5303 -42.9199zM489.19 381.75c-4.33008 -17.1396 8.5498 -28.96 21.5195 -29.6699c11.6602 -0.629883 21.3799 7.34961 24.1299 18.2598z" />
    <glyph glyph-name="duck-primary" unicode="&#xf6d8;" 
d="M401.31 170.57c28.3291 -20.1699 46.7217 -53.1025 46.7217 -90.4951c0 -4.17969 -0.231445 -8.30469 -0.681641 -12.3652c-5.90918 -55.1904 -61.21 -99.71 -116.72 -99.71h-107.2c-118.069 0 -214.81 91.3604 -223.43 207.25c-0.629883 9.08984 7 16.75 16.1602 16.75
h50.3994c12.1504 -72.5596 74.8203 -128 150.82 -128h32c-84.6494 0 -153.374 68.7217 -153.38 153.37c0 14.46 17.7402 21.6299 27.7598 10.8701c21.5 -23.04 70.1699 -36.2402 101.681 -36.2402h21.6895c22.5576 0.00585938 40.8701 18.3213 40.8701 40.8799
c-0.0859375 10.1035 -3.80469 19.3789 -9.90039 26.5303c-13.7725 16.3604 -22.0996 37.5303 -22.0996 60.5684v0.0214844c0 52.9834 43.0166 96 96 96s96 -43.0166 96 -96c0 -41.7998 -21.7197 -82.8203 -59 -96c-3.1709 -5.72168 -5.00293 -12.3359 -5.00293 -19.335
c0 -0.155273 0.000976562 -0.310547 0.00292969 -0.464844c0.00976562 -13.8682 6.81836 -26.127 17.3096 -33.6299zM352 304c8.83105 0 16 7.16895 16 16s-7.16895 16 -16 16s-16 -7.16895 -16 -16s7.16895 -16 16 -16z" />
    <glyph glyph-name="dungeon-primary" unicode="&#xf6d9;" 
d="M112 160c8.83105 0 16 -7.16895 16 -16v-64c0 -8.83105 -7.16895 -16 -16 -16h-96c-8.83105 0 -16 7.16895 -16 16v64c0 8.83105 7.16895 16 16 16h96zM128.73 252.68c6.58984 -4.12012 8.89941 -12.2393 6.3291 -19.5801
c-2.99512 -8.54297 -5.1416 -17.6719 -6.23926 -26.9395c-0.919922 -7.91016 -7 -14.1602 -15 -14.1602h-97.1299c-9.10059 0 -16.6904 7.62988 -16.1504 16.7197c2.03223 31.5156 9.9541 61.9053 22.4502 89.2705c3.92969 8.62012 14.9297 11.4502 22.9297 6.4502z
M453 354.89c6.09961 -7.31934 3.87988 -18.4795 -4.21973 -23.46l-82.9307 -51.8301c-6.50977 -4.06934 -14.6699 -2.61914 -20.1094 2.79004c-5.20898 5.16211 -10.7588 9.79199 -16.79 14c-6.2998 4.40039 -9.15039 12.1602 -6.2998 19.2803l36.3193 90.7998
c3.54004 8.83008 14.1406 12.9902 22.4199 8.31055c27.5293 -15.5498 51.5625 -35.6963 71.6104 -59.8906zM496 32c8.83105 0 16 -7.16895 16 -16v-64c0 -8.83105 -7.16895 -16 -16 -16h-96c-8.83105 0 -16 7.16895 -16 16v64c0 8.83105 7.16895 16 16 16h96zM153 406.47
l36.3496 -90.8496c2.85059 -7.12012 -0.0195312 -14.8799 -6.2998 -19.29c-6.03125 -4.20801 -11.5811 -8.83887 -16.79 -14c-5.4502 -5.41016 -13.5996 -6.86035 -20.1094 -2.79004l-82.9307 51.8301c-8.06934 5.04004 -10.2793 16.2002 -4.21973 23.5195
c20.0391 24.1924 44.0625 44.3379 71.5801 59.8906c8.29004 4.68945 18.8896 0.519531 22.4199 -8.31055zM112 32c8.83105 0 16 -7.16895 16 -16v-64c0 -8.83105 -7.16895 -16 -16 -16h-96c-8.83105 0 -16 7.16895 -16 16v64c0 8.83105 7.16895 16 16 16h96zM496 160
c8.83105 0 16 -7.16895 16 -16v-64c0 -8.83105 -7.16895 -16 -16 -16h-96c-8.83105 0 -16 7.16895 -16 16v64c0 8.83105 7.16895 16 16 16h96zM398.18 192c-7.95996 0 -14.0801 6.25 -15.0195 14.1699c-1.09473 9.26953 -3.24121 18.3984 -6.24023 26.9404
c-2.55957 7.33984 -0.25 15.46 6.33984 19.5801l82.8105 51.7598c8.04004 5.01953 18.9893 2.16992 22.9297 -6.4502c12.5049 -27.3643 20.4316 -57.7578 22.46 -89.2803c0.589844 -9.08984 -7.0498 -16.7197 -16.1504 -16.7197h-97.1299zM319 440
c9.2002 -2.36035 13.9404 -12.5996 10.4697 -21.4199l-37.4697 -104c-2.22949 -6.1543 -8.12207 -10.5498 -15.042 -10.5498h-0.078125h-41.7998c-6.90723 0.0234375 -12.7852 4.42676 -15 10.5801l-37.4697 104c-3.52051 8.79004 1.21973 19.04 10.3896 21.3896
c20.1689 5.20117 41.1191 7.96777 62.9033 7.96777s42.9277 -2.7666 63.0967 -7.96777z" />
    <glyph glyph-name="eye-evil-primary" unicode="&#xf6db;" horiz-adv-x="640" 
d="M627 208.92c17.3301 -4.68945 17.3291 -29.1494 0.0390625 -33.8291l-111.87 -30.2998c-4.78027 -6.54004 -10.0703 -13.3799 -16.0703 -20.3799c1.34082 -2.0498 55.1201 -88.0498 55.1201 -88.0498c8.94043 -14.3203 -6.09961 -31.3506 -22.4502 -25.4307
l-119.77 43.3604c-9.75098 -4.81641 -20.1201 -8.9873 -30.6396 -12.29l-44.4707 -95.2402c-6.67969 -14.3096 -27.0801 -14.3096 -33.7598 0l-44.4697 95.2402c-10.5264 3.30176 -20.9023 7.47266 -30.6602 12.29l-119.76 -43.3604
c-16.3506 -5.92969 -31.3906 11.0703 -22.4199 25.4307c0 0 53.7793 85.96 55.1201 88.0498c-5.95996 7.03027 -11.29 13.8398 -16.0703 20.3799l-111.87 30.2998c-17.29 4.67969 -17.29 29.1504 0 33.8301l111.84 30.2803c5.13379 7.0127 10.5107 13.8291 16.1309 20.4492
c-1.33984 2.08008 -55.1797 88 -55.1797 88c-8.92969 14.3496 6.09961 31.3496 22.4502 25.4199l119.76 -43.3604c9.75781 4.81738 20.1338 8.98828 30.6602 12.29l44.4697 95.2695c6.67969 14.3105 27.0801 14.3105 33.7598 0l44.4707 -95.2695
c10.5176 -3.30664 20.8857 -7.47852 30.6396 -12.29l119.77 43.3604c16.3506 5.92969 31.3906 -11.0703 22.4102 -25.4004c0 0 -53.8301 -85.9297 -55.1797 -88c5.98047 -7.0498 11.3398 -13.8896 16.1299 -20.4502zM319.999 96.001
c52.9834 0 95.9521 43.1133 95.9521 96.0977c0 19.5771 -5.87305 37.7939 -15.9521 52.9824c-21.9199 -13.1797 -49.7197 -21.0801 -80 -21.0801s-58.0801 7.90039 -80 21.0801c-10.0791 -15.1885 -16 -33.5029 -16 -53.0801c0 -52.9834 43.0166 -96 96 -96z" />
    <glyph glyph-name="fist-raised-primary" unicode="&#xf6de;" horiz-adv-x="384" 
d="M144 416c8.83105 0 16 -7.16895 16 -16v-160c0 -8.83105 -7.16895 -16 -16 -16h-32c-8.83105 0 -16 7.16895 -16 16v160c0 8.83105 7.16895 16 16 16h32zM48 384c8.83105 0 16 -7.16895 16 -16v-128c0 -8.83105 -7.16895 -16 -16 -16h-32c-8.83105 0 -16 7.16895 -16 16
v128c0 8.83105 7.16895 16 16 16h32zM336 416c8.83105 0 16 -7.16895 16 -16v-117.9c-9.96777 3.69434 -20.7803 5.79102 -32 5.90039h-32v112c0 8.83105 7.16895 16 16 16h32zM240 448c8.83105 0 16 -7.16895 16 -16v-144h-48
c-5.6084 -0.0517578 -11.0137 -1.09277 -16 -2.92969v146.93c0 8.83105 7.16895 16 16 16h32z" />
    <glyph glyph-name="ghost-primary" unicode="&#xf6e2;" horiz-adv-x="384" 
d="M128 288c17.6611 0 32 -14.3389 32 -32s-14.3389 -32 -32 -32s-32 14.3389 -32 32s14.3389 32 32 32zM256 288c17.6611 0 32 -14.3389 32 -32s-14.3389 -32 -32 -32s-32 14.3389 -32 32s14.3389 32 32 32z" />
    <glyph glyph-name="hammer-primary" unicode="&#xf6e3;" horiz-adv-x="576" 
d="M435.56 186.19l11.3105 11.3096l-28.8701 28.9004c-5.31348 -1.43848 -10.9014 -2.20605 -16.668 -2.20605c-17.5342 0 -33.415 7.08105 -44.9424 18.5557l-49.1396 49.1396c-11.585 11.583 -18.7471 27.5908 -18.75 45.25v18.75l-90.5 45.25
c28.9619 28.9639 68.9629 46.8887 113.118 46.8887c44.1543 0 84.2002 -17.9248 113.162 -46.8887l45.25 -45.25c11.4746 -11.5273 18.5713 -27.417 18.5713 -44.9512c0 -5.76562 -0.783203 -11.3447 -2.22168 -16.6582l28.9004 -28.9004l11.3096 11.3105
c2.89648 2.89648 6.89648 4.68945 11.3125 4.68945s8.4209 -1.79297 11.3174 -4.68945l22.6299 -22.6309c2.89453 -2.89551 4.68555 -6.89355 4.68555 -11.3076c0 -4.41309 -1.79102 -8.41602 -4.68555 -11.3115l-90.5098 -90.5107
c-2.89648 -2.89648 -6.89648 -4.68945 -11.3125 -4.68945s-8.4209 1.79297 -11.3174 4.68945l-22.6299 22.6299c-2.90332 2.89746 -4.7002 6.90234 -4.7002 11.3232c0 4.41113 1.78906 8.41211 4.67969 11.3076z" />
    <glyph glyph-name="hand-holding-magic-primary" unicode="&#xf6e5;" horiz-adv-x="576" 
d="M384 320v32c0 17.6611 -14.3389 32 -32 32h-128c-17.6611 0 -32 -14.3389 -32 -32v-32c0 -14.5 14.2803 -32 32 -32c64 0 96 32 96 32c-0.0546875 -52.958 -43.042 -95.9453 -96 -96c-51.1396 0 -96 44.8604 -96 96v32c0.0546875 52.958 43.042 95.9453 96 96h128
c52.958 -0.0546875 95.9453 -43.042 96 -96v-33.5596c-0.599609 -76.1602 -65.1299 -137.07 -142.18 -141.431l-17.8203 -1.00977l53.9102 53.2002c24.5801 24.2598 42.0898 56.5 42.0898 90.7998z" />
    <glyph glyph-name="hanukiah-primary" unicode="&#xf6e6;" horiz-adv-x="640" 
d="M544 280v-120h-32v120c0 4.41504 3.58496 8 8 8h16c4.41504 0 8 -3.58496 8 -8zM192 280v-120h-32v120c0 4.41504 3.58496 8 8 8h16c4.41504 0 8 -3.58496 8 -8zM128 280v-120h-32v120c0 4.41504 3.58496 8 8 8h16c4.41504 0 8 -3.58496 8 -8zM416 280v-120h-32v120
c0 4.41504 3.58496 8 8 8h16c4.41504 0 8 -3.58496 8 -8zM480 280v-120h-32v120c0 4.41504 3.58496 8 8 8h16c4.41504 0 8 -3.58496 8 -8zM256 280v-120h-32v120c0 4.41504 3.58496 8 8 8h16c4.41504 0 8 -3.58496 8 -8zM624 288c8.83105 0 16 -7.16895 16 -16v-112
c0 -52.9834 -43.0166 -96 -96 -96h-192v-64h176c8.83105 0 16 -7.16895 16 -16v-32c0 -8.83105 -7.16895 -16 -16 -16h-416c-8.83105 0 -16 7.16895 -16 16v32c0 8.83105 7.16895 16 16 16h176v64h-192c-52.9834 0 -96 43.0166 -96 96v112c0 8.83105 7.16895 16 16 16h32
c8.83105 0 16 -7.16895 16 -16v-112c0 -17.6611 14.3389 -32 32 -32h192v192c0 8.83105 7.16895 16 16 16h32c8.83105 0 16 -7.16895 16 -16v-192h192c17.6611 0 32 14.3389 32 32v112c0 8.83105 7.16895 16 16 16h32z" />
    <glyph glyph-name="hat-witch-primary" unicode="&#xf6e7;" horiz-adv-x="576" 
d="M542.35 333.24l-30.3496 -77.2402l-14 42.1201c-4.2373 12.7109 -16.2383 21.8857 -30.3662 21.8857c-0.0175781 0 -0.0263672 -0.00585938 -0.0439453 -0.00585938h-39.1895h-0.046875c-14.124 0 -26.1133 -9.16406 -30.3535 -21.8701l-6.34961 -19
c-2.11719 -6.35938 -3.26465 -13.1602 -3.26465 -20.2266c0 -8.93164 1.8457 -17.4961 5.1543 -25.2236l79.5996 -185.729c-20.2334 -10.0596 -43.1719 -15.8457 -67.2598 -15.9502h-53.8799v64c0 17.6611 -14.3389 32 -32 32h-64c-17.6611 0 -32 -14.3389 -32 -32v-64
h-53.9004c-24.0234 0.0820312 -46.9014 5.81836 -67.0996 15.8096l104 233.86c11.127 25.0234 29.8418 45.6465 53.46 59.1504l166.35 103c4.67188 2.66797 10.0781 4.19336 15.8379 4.19336c8.83105 0 16.8701 -3.56055 22.6621 -9.35352l69.3105 -72.6602
c5.79395 -5.79297 9.37988 -13.7939 9.37988 -22.626c0 -3.53711 -0.587891 -6.95117 -1.65039 -10.1338z" />
    <glyph glyph-name="head-side-primary" unicode="&#xf6e9;" 
d="M320 224c-17.6611 0 -32 14.3389 -32 32s14.3389 32 32 32s32 -14.3389 32 -32s-14.3389 -32 -32 -32z" />
    <glyph glyph-name="head-vr-primary" unicode="&#xf6ea;" 
d="M496 384c8.83105 0 16 -7.16895 16 -16v-128c0 -8.83105 -7.16895 -16 -16 -16h-48v160h48zM225.6 320c7.44434 36.4678 39.7305 64 78.3838 64h0.0166016h112v-160h-107.44c-26.7197 0 -51.9092 12.29 -67.7197 32h-224.84c-8.83105 0 -16 7.16895 -16 16v32
c0 8.83105 7.16895 16 16 16h209.6z" />
    <glyph glyph-name="helmet-battle-primary" unicode="&#xf6eb;" horiz-adv-x="576" 
d="M494.82 21.2305l-174.82 -85.2305v256l96 32v32h-256v-32l96 -32v-256l-174.81 85.2305c-12.7305 5.86914 -19.75 20.7695 -16.3203 35.2393c8.26953 34.8105 31.1299 97.9502 31.1299 180.71c0 120.471 192 210.82 192 210.82s192 -90.3496 192 -210.82
c0 -82.7598 22.8604 -145.899 31.1396 -180.71c3.43066 -14.4697 -3.58984 -29.3701 -16.3193 -35.2393z" />
    <glyph glyph-name="hiking-primary" unicode="&#xf6ec;" horiz-adv-x="384" 
d="M81 -24.2305l34.5098 138.23l52.8301 -52.7598l-25.2402 -101c-3.47852 -13.9111 -16.0645 -24.2559 -31.0469 -24.2559c-17.665 0 -32.0059 14.3418 -32.0059 32.0068c0 2.68262 0.330078 5.28809 0.953125 7.77832zM243 223.77l-19.9502 -79.5391
c-0.129883 -0.520508 -0.469727 -0.910156 -0.620117 -1.41016l46.8203 -46.8203c11.584 -11.5186 18.75 -27.4717 18.75 -45.082v-0.167969v-82.75c0 -17.6611 -14.3389 -32 -32 -32s-32 14.3389 -32 32v82.75l-86.5801 86.6201
c-5.79395 5.79199 -9.37207 13.7842 -9.37207 22.6162c0 2.68066 0.330078 5.28418 0.952148 7.77344l26.8799 107.721c6.38965 25.5459 29.5176 44.5264 57.0322 44.5264c16.2217 0 30.918 -6.58594 41.5576 -17.2266l46.7803 -46.7803h34.75v-64h-48
c-8.80371 0.00683594 -16.7861 3.57227 -22.5703 9.33984z" />
    <glyph glyph-name="hockey-mask-primary" unicode="&#xf6ee;" horiz-adv-x="448" 
d="M176 16c8.83105 0 16 -7.16895 16 -16s-7.16895 -16 -16 -16s-16 7.16895 -16 16s7.16895 16 16 16zM176 80c8.83105 0 16 -7.16895 16 -16s-7.16895 -16 -16 -16s-16 7.16895 -16 16s7.16895 16 16 16zM176 144c8.83105 0 16 -7.16895 16 -16s-7.16895 -16 -16 -16
s-16 7.16895 -16 16s7.16895 16 16 16zM288 384c8.83105 0 16 -7.16895 16 -16s-7.16895 -16 -16 -16s-16 7.16895 -16 16s7.16895 16 16 16zM272 144c8.83105 0 16 -7.16895 16 -16s-7.16895 -16 -16 -16s-16 7.16895 -16 16s7.16895 16 16 16zM272 80
c8.83105 0 16 -7.16895 16 -16s-7.16895 -16 -16 -16s-16 7.16895 -16 16s7.16895 16 16 16zM272 16c8.83105 0 16 -7.16895 16 -16s-7.16895 -16 -16 -16s-16 7.16895 -16 16s7.16895 16 16 16zM224 336c8.83105 0 16 -7.16895 16 -16s-7.16895 -16 -16 -16
s-16 7.16895 -16 16s7.16895 16 16 16zM176 368c0 -8.83105 -7.16895 -16 -16 -16s-16 7.16895 -16 16s7.16895 16 16 16s16 -7.16895 16 -16z" />
    <glyph glyph-name="house-damage-primary" unicode="&#xf6f1;" horiz-adv-x="576" 
d="M236 192l148.01 -136.74l-104.109 -64l39.9199 -55.2598h-90.5801l-37.2402 72.8203l104.11 63.9795zM570.7 211.74c3.26562 -2.93066 5.31348 -7.1875 5.31348 -11.917c0 -4.10449 -1.54883 -7.84961 -4.09375 -10.6836l-21.4004 -23.8193
c-2.92969 -3.25977 -7.18262 -5.30273 -11.9062 -5.30273c-4.10938 0 -7.8584 1.55273 -10.6934 4.10254l-229.32 202.27c-2.82031 2.48926 -6.53906 3.99902 -10.5918 3.99902c-4.05371 0 -7.75684 -1.50977 -10.5781 -3.99902l-229.33 -202.27
c-2.83301 -2.54395 -6.58301 -4.10156 -10.6875 -4.10156c-4.72363 0 -8.97266 2.05176 -11.9023 5.31152l-21.4102 23.79c-2.54395 2.83301 -4.10156 6.58301 -4.10156 10.6875c0 4.72363 2.05176 8.97266 5.31152 11.9023l256 226
c7.06934 6.3916 16.4707 10.2852 26.7412 10.2852c10.2715 0 19.6396 -3.89355 26.709 -10.2852l101.24 -89.3799v51.6699c0 8.83105 7.16895 16 16 16h64c8.83105 0 16 -7.16895 16 -16v-136.43z" />
    <glyph glyph-name="hryvnia-primary" unicode="&#xf6f2;" horiz-adv-x="384" 
d="M323.32 363.74c20.0693 -36.5801 12.5996 -82.1699 -17.2207 -111.351l-171.29 -167.609c-4.18945 -3.87598 -6.81445 -9.41992 -6.81445 -15.5713c0 -11.7021 9.50488 -21.2021 21.2051 -21.209h83.6299c5.83398 0 11.1992 2.09375 15.3604 5.55957l11.75 9.80078
c4.16211 3.4707 9.5166 5.56055 15.3555 5.56055c7.41113 0 14.0498 -3.34473 18.4541 -8.63086l20.4902 -24.5898c3.46777 -4.16211 5.55566 -9.51465 5.55566 -15.3506c0 -7.40918 -3.34277 -14.0459 -8.62598 -18.4492l-11.7695 -9.81055
c-18.0273 -15.0156 -41.2686 -24.085 -66.54 -24.0898h-78.8604c-37.1396 0 -73.3799 17.8496 -92 49.9502c-0.450195 0.769531 -0.879883 1.54004 -1.30957 2.30957c-20.0703 36.5801 -12.6006 82.1807 17.2295 111.351l171.28 167.6
c4.19629 3.87598 6.8252 9.42383 6.8252 15.5811c0 11.7061 -9.50391 21.21 -21.21 21.21c-0.00292969 0 -0.0126953 -0.000976562 -0.015625 -0.000976562h-83.6201h-0.0166016c-5.83984 0 -11.21 -2.09766 -15.373 -5.57031l-11.7305 -9.7793
c-4.16211 -3.47168 -9.5166 -5.56152 -15.3555 -5.56152c-7.41113 0 -14.0498 3.34473 -18.4541 8.63086l-20.4902 24.5801c-3.46777 4.16211 -5.55566 9.51465 -5.55566 15.3506c0 7.40918 3.34277 14.0459 8.62598 18.4492l11.7695 9.81055
c18.0273 15.0156 41.2686 24.085 66.54 24.0898h78.8604c37.1396 0 73.3799 -17.8398 92 -50c0.459961 -0.719727 0.889648 -1.49023 1.32031 -2.25977z" />
    <glyph glyph-name="key-skeleton-primary" unicode="&#xf6f3;" 
d="M448 448c35.3223 0 64 -28.6777 64 -64v-128c0 -35.3223 -28.6777 -64 -64 -64h-128c-35.3223 0 -64 28.6777 -64 64v128c0 35.3223 28.6777 64 64 64h128zM374.63 265.37c5.79102 5.79199 9.375 13.7998 9.375 22.6289c0 8.83008 -3.58398 16.8291 -9.375 22.6211
c-5.79199 5.79395 -13.793 9.37012 -22.625 9.37012c-17.6611 0 -32 -14.3389 -32 -32s14.3389 -32 32 -32c8.83203 0 16.833 3.58594 22.625 9.37988zM438.63 329.37c5.79102 5.79199 9.375 13.7998 9.375 22.6289c0 8.83008 -3.58398 16.8291 -9.375 22.6211
c-5.79199 5.79395 -13.793 9.37012 -22.625 9.37012c-17.6611 0 -32 -14.3389 -32 -32s14.3389 -32 32 -32c8.83203 0 16.833 3.58594 22.625 9.37988z" />
    <glyph glyph-name="knife-kitchen-primary" unicode="&#xf6f5;" horiz-adv-x="576" 
d="M566.28 404.69c5.99121 -5.6875 9.72949 -13.7256 9.72949 -22.6309c0 -8.9043 -3.73828 -16.9424 -9.72949 -22.6299l-118.28 -119.43v-44.5098c-0.0322266 -8.89844 -3.75684 -16.9336 -9.73047 -22.6406l-34.3496 -27.6992l-112.1 108.08l192.31 185.39
c6.11133 5.80762 14.3916 9.37305 23.4795 9.37305s17.3496 -3.56543 23.4609 -9.37305zM444.28 298.33c3.00781 2.84473 4.84473 6.87207 4.84473 11.334c0 4.44238 -1.86133 8.4541 -4.84473 11.2959c-3.05176 2.91113 -7.19336 4.7002 -11.7402 4.7002
c-4.5459 0 -8.67871 -1.78906 -11.7305 -4.7002c-2.99512 -2.84375 -4.86426 -6.8623 -4.86426 -11.3154c0 -4.45215 1.86914 -8.4707 4.86426 -11.3145c3.05176 -2.91211 7.19336 -4.7002 11.7402 -4.7002c4.5459 0 8.67871 1.78809 11.7305 4.7002zM504.8 356.69
c3.00781 2.84277 4.84473 6.86816 4.84473 11.3291c0 4.44043 -1.86133 8.4502 -4.84473 11.29c-3.05176 2.91211 -7.19238 4.70117 -11.7393 4.70117s-8.67871 -1.78906 -11.7305 -4.70117c-2.99512 -2.84082 -4.86426 -6.85938 -4.86426 -11.3096
c0 -4.45117 1.86914 -8.46875 4.86426 -11.3096c3.05176 -2.91211 7.19238 -4.70117 11.7393 -4.70117s8.67871 1.78906 11.7305 4.70117z" />
    <glyph glyph-name="leaf-maple-primary" unicode="&#xf6f6;" 
d="M24.6699 -64c-13.582 0 -24.626 11.0273 -24.626 24.6104c0 6.78516 2.74805 12.9355 7.19629 17.3896l270.68 270.78c4.46191 4.46094 10.625 7.22168 17.4268 7.22168c13.6064 0 24.6533 -11.0469 24.6533 -24.6533c0 -6.80469 -2.75586 -12.9756 -7.21973 -17.4385
l-270.681 -270.73c-4.43652 -4.4375 -10.5645 -7.18359 -17.3291 -7.18359c-0.0332031 0 -0.0673828 0.00390625 -0.100586 0.00390625z" />
    <glyph glyph-name="leaf-oak-primary" unicode="&#xf6f7;" 
d="M24.6699 -64c-13.582 0 -24.626 11.0273 -24.626 24.6104c0 6.78516 2.74805 12.9355 7.19629 17.3896l270.68 270.78c4.46191 4.46094 10.625 7.22168 17.4268 7.22168c13.6064 0 24.6533 -11.0469 24.6533 -24.6533c0 -6.80469 -2.75586 -12.9756 -7.21973 -17.4385
l-270.681 -270.73c-4.43652 -4.4375 -10.5645 -7.18359 -17.3291 -7.18359c-0.0332031 0 -0.0673828 0.00390625 -0.100586 0.00390625z" />
    <glyph glyph-name="mace-primary" unicode="&#xf6f8;" 
d="M501 253c14.5703 -4.58984 14.7002 -17.1299 0.19043 -22.1396l-74.4404 -25.2607c-11.7256 -41.9209 -44.3672 -75.1455 -85.9502 -87.6699l-23.7695 -75c-4.62012 -14.5898 -17.1602 -14.7197 -22.0801 -0.219727l-25.2598 74.4404
c-41.9287 11.7393 -75.1553 44.3994 -87.6709 86l-75 23.7695c-14.5898 4.62012 -14.7197 17.1602 -0.219727 22.0801l74.4004 25.3301c11.7393 41.9287 44.3994 75.1553 86 87.6699l23.7998 75c4.58984 14.5703 17.1299 14.7002 22.0498 0.200195l25.2803 -74.4502
c41.9209 -11.7256 75.1455 -44.3672 87.6699 -85.9502zM304 208c17.6611 0 32 14.3389 32 32s-14.3389 32 -32 32s-32 -14.3389 -32 -32s14.3389 -32 32 -32z" />
    <glyph glyph-name="mountain-primary" unicode="&#xf6fc;" horiz-adv-x="640" 
d="M636.09 -47.3301c-5.42969 -9.94824 -15.9678 -16.6699 -28.0898 -16.6699h-576c-17.6611 0 -32 14.3389 -32 32c0 6.35742 1.87793 12.3174 5.08008 17.2998l166.55 259.07l84.3701 -84.3701l64 64h161.47l153.45 -238.7
c3.20215 -4.98242 5.06055 -10.9102 5.06055 -17.2676c0 -5.53809 -1.41016 -10.8174 -3.89062 -15.3623z" />
    <glyph glyph-name="mountains-primary" unicode="&#xf6fd;" horiz-adv-x="640" 
d="M338.33 258.93l165.17 -258.93h-472.58c-24.1104 0 -38.9199 25.1904 -26.3398 44.8203l207.9 324.66c12.3994 19.3594 42.6396 19.3594 55 0z" />
    <glyph glyph-name="network-wired-primary" unicode="&#xf6ff;" horiz-adv-x="640" 
d="M224 256c-17.6611 0 -32 14.3389 -32 32v128c0 17.6611 14.3389 32 32 32h192c17.6611 0 32 -14.3389 32 -32v-128c0 -17.6611 -14.3389 -32 -32 -32h-192zM256 384v-64h128v64h-128zM576 128c17.6611 0 32 -14.3389 32 -32v-128c0 -17.6611 -14.3389 -32 -32 -32h-160
c-17.6611 0 -32 14.3389 -32 32v128c0 17.6611 14.3389 32 32 32h160zM544 0v64h-96v-64h96zM224 128c17.6611 0 32 -14.3389 32 -32v-128c0 -17.6611 -14.3389 -32 -32 -32h-160c-17.6611 0 -32 14.3389 -32 32v128c0 17.6611 14.3389 32 32 32h160zM192 0v64h-96v-64h96z
" />
    <glyph glyph-name="otter-primary" unicode="&#xf700;" horiz-adv-x="640" 
d="M512 96c17.6611 0 32 -14.3389 32 -32v-16c0 -8.83105 -7.16895 -16 -16 -16h-80l-74.5098 144.5l-149.49 -80.5h64c17.6611 0 32 -14.3389 32 -32v-16c0 -8.83105 -7.16895 -16 -16 -16h-224c-8.83105 0 -16 -7.16895 -16 -16s7.16895 -16 16 -16h112
c17.6611 0 32 -14.3389 32 -32s-14.3389 -32 -32 -32h-108.47c-39.3799 0 -75.5303 26.9004 -82.2803 65.7002c-0.841797 4.64551 -1.2998 9.36523 -1.2998 14.252c0 22.5928 9.39551 43.0078 24.4902 57.5479c23.5596 22.75 39.5596 52.1396 39.5596 84.8896v1.61035
c0 106 86 192 192 192h56l153.25 87.5703c9.34277 5.33789 20.2275 8.42969 31.75 8.42969h20.4902c17.6631 0 33.6748 -7.16211 45.2598 -18.75l13.25 -13.25h32c17.6611 0 32 -14.3389 32 -32v-32c0 -5.48145 -0.454102 -10.7656 -1.33008 -16h-126.67l-118.57 -59.29
l34.5703 -70.71l0.860352 -0.179688l54.9199 -109.82h28.2197zM512 400c-8.83105 0 -16 -7.16895 -16 -16s7.16895 -16 16 -16s16 7.16895 16 16s-7.16895 16 -16 16z" />
    <glyph glyph-name="paw-alt-primary" unicode="&#xf701;" horiz-adv-x="448" 
d="M400 304c26.4922 0 48 -21.5078 48 -48s-21.5078 -48 -48 -48s-48 21.5078 -48 48s21.5078 48 48 48zM304 416c26.4922 0 48 -21.5078 48 -48s-21.5078 -48 -48 -48s-48 21.5078 -48 48s21.5078 48 48 48zM48 304c26.4922 0 48 -21.5078 48 -48s-21.5078 -48 -48 -48
s-48 21.5078 -48 48s21.5078 48 48 48zM144 416c26.4922 0 48 -21.5078 48 -48s-21.5078 -48 -48 -48s-48 21.5078 -48 48s21.5078 48 48 48z" />
    <glyph glyph-name="paw-claws-primary" unicode="&#xf702;" 
d="M320 448l64.04 -80.0303c15 -17.7002 20.4404 -47.8096 12 -78.75c-11.8398 -43.4199 -46.5205 -72.0098 -77.46 -63.8701c-30.9404 8.14062 -46.4199 49.9404 -34.5801 93.3604c6.50977 23.9199 20.0498 43.0303 36 54.29v75zM493.51 257.63
c11.5938 -15.8965 18.4873 -35.5576 18.4902 -56.7197c-0.0527344 -7.47559 -1.20215 -14.7031 -3.26953 -21.5205c-10.4102 -34.6494 -42.4404 -57.0898 -71.5605 -50.1299s-44.29 40.6904 -33.8896 75.3398c7.20996 24.0303 24.8896 41.9102 44.7197 48.46v66.9404z
M192 373c16 -11.21 29.4902 -30.3301 36.04 -54.2598c11.8398 -43.4199 -3.65039 -85.2305 -34.5801 -93.3604s-65.6201 20.4502 -77.46 63.8701c-8.4502 30.9297 -3 61.0498 12 78.75l64 80v-75zM64 253v0.0703125c19.8301 -6.55078 37.5098 -24.4307 44.7197 -48.46
c10.4004 -34.6504 -4.75977 -68.3906 -33.8799 -75.3506s-61.1602 15.4805 -71.5596 50.1299c-2.07031 6.81738 -3.22266 14.0449 -3.28027 21.5205c0 21.1582 6.89453 40.8301 18.4902 56.7197l45.5098 62.3701v-67z" />
    <glyph glyph-name="pegasus-primary" unicode="&#xf703;" horiz-adv-x="576" 
d="M567.34 393.2c5.33203 -5.68262 8.60059 -13.333 8.60059 -21.7314v-0.0683594l0.0595703 -77.71c0 -0.0136719 0.0185547 -0.0126953 0.0185547 -0.0263672c0 -13.4785 -8.35156 -25.0225 -20.1582 -29.7344l-32.5508 -13
c-3.66895 -1.46777 -7.67383 -2.31934 -11.8643 -2.31934c-12.5195 0 -23.3682 7.2041 -28.625 17.6895l-18.9004 37.7002l-16 7.11035v-102.471c0.00976562 -0.219727 0.0800781 -0.419922 0.0800781 -0.639648c0 -0.00683594 0.0107422 -0.0341797 0.0107422 -0.0410156
c0 -30.4375 -12.2168 -58.0439 -32.0107 -78.1787v-177.78c0 -8.83105 -7.16895 -16 -16 -16h-64c-8.83105 0 -16 7.16895 -16 16v150.4l-134 22.3301l-23.8096 -63.5908l26.3291 -105.26c0.311523 -1.24414 0.477539 -2.53906 0.477539 -3.87988
c0 -8.83008 -7.16797 -15.999 -15.9971 -16h-66c-7.47363 0.0136719 -13.75 5.16992 -15.4902 12.1104l-24.8496 99.4092c-1.24805 4.9834 -1.89355 10.1973 -1.89355 15.5645c0 7.89258 1.43359 15.4541 4.05371 22.4355l25.7197 68.6006
c-18.8154 17.4834 -30.5908 42.4062 -30.5908 70.0918c0 41.7324 26.7646 77.2627 64.0508 90.3477v-0.699219c1 0.339844 2 0.672852 3 1c13.6699 -65.3408 74.1104 -122.86 157 -122.86v3.16016c-77 14.6494 -128 80.7402 -128 147.74
c0 0.0136719 0.0869141 0.169922 0.0869141 0.18457c0 24.209 5.44336 47.1572 15.1729 67.6846c3.39062 7.26074 13.7803 6.85059 17 -0.5c23.46 -53.4893 63.7402 -90.2695 127.641 -90.2695c0 70.6455 57.3545 128 128 128h120
c4.45996 -0.00585938 8.0791 -3.62207 8.0791 -8.08398c0 -0.532227 -0.0507812 -1.05273 -0.149414 -1.55566c-2.67969 -13.1699 -11.1201 -23.8203 -22.1797 -30.6602c5.10938 -5.37988 9.90918 -10.5 13.6895 -14.5zM511.92 352c8.83105 0 16 7.16895 16 16
s-7.16895 16 -16 16c-8.83008 0 -16 -7.16895 -16 -16s7.16992 -16 16 -16z" />
    <glyph glyph-name="pumpkin-primary" unicode="&#xf707;" horiz-adv-x="576" 
d="M495.31 -38.8701c-38.6299 -33 -100.819 -33.3398 -140.119 -1.25c-17.8408 -15.3896 -39.9102 -23.8799 -67.1904 -23.8799s-49.3496 8.49023 -67.1797 23.8799c-39.3008 -32.0898 -101.49 -31.7803 -140.12 1.25c-107.601 92 -107.601 241.73 0 333.74
c31.6094 27 78.7998 31.6895 116.51 15c-3.08008 -4 -6.51953 -7.37988 -9.20996 -11.9199c-8.33008 -14.2705 -14.5 -31.7705 -19.1104 -51.6104c3.49512 8.47461 7.8291 16.5781 12.8604 24.1104c22.6729 33.0332 58.0898 49.5498 106.25 49.5498
s83.5771 -16.5 106.25 -49.5c5.03125 -7.53613 9.36523 -15.6426 12.8604 -24.1201c-4.61035 19.8398 -10.79 37.3506 -19.1104 51.6201c-2.69043 4.54004 -6.13965 7.9502 -9.20996 11.9199c37.71 16.6396 84.9004 12 116.51 -15
c107.601 -92.0596 107.601 -241.78 0.00976562 -333.79z" />
    <glyph glyph-name="ram-primary" unicode="&#xf70a;" horiz-adv-x="640" 
d="M622.25 342c10.5127 -5.17773 17.7275 -15.9746 17.75 -28.4697c0 -11.1406 -10.4102 -31.3301 -18 -44.5898c-4.43164 -7.74512 -12.7598 -12.9404 -22.3135 -12.9404h-0.0263672h-108.351c0.00488281 0.288086 -0.00390625 0.589844 -0.00390625 0.878906
c0 14.4941 -5.38184 27.7422 -14.2559 37.8516c-17.502 -23.5488 -45.4971 -38.6934 -77.0635 -38.6934c-52.9834 0 -96 43.0156 -96 96c0 52.9834 43.0166 96 96 96c28.4238 0 53.9795 -12.3799 71.5635 -32.0371h72.4502c17.6611 0 32 -14.3389 32 -32v-19.2197zM400 304
c26.4795 0.0273438 47.9727 21.5205 48 48c0 26.4922 -21.5078 48 -48 48s-48 -21.5078 -48 -48s21.5078 -48 48 -48zM512 336c8.83105 0 16 7.16895 16 16s-7.16895 16 -16 16s-16 -7.16895 -16 -16s7.16895 -16 16 -16zM193.46 29.1396l18.3496 -73.2598
c0.311523 -1.24414 0.477539 -2.53906 0.477539 -3.87988c0 -8.83008 -7.16797 -15.999 -15.9971 -16h-66c-7.48926 0.000976562 -13.7822 5.16602 -15.5205 12.1201l-16.8496 67.4102c-1.24512 4.97852 -1.91016 10.1152 -1.91016 15.4775
c0 4.53223 0.472656 8.95508 1.37012 13.2227c8.45312 -6.02637 18.8398 -9.60059 30.0029 -9.60059h0.117188c11.377 0.0380859 21.9648 3.7041 30.5801 9.86035c9.38281 -7.36426 21.2451 -11.7803 34.0859 -11.7803h0.09375
c0.860352 0 1.70996 0.0703125 2.57031 0.0703125zM433.92 70.3398c1.08008 -0.0703125 2.21973 -0.109375 3.33008 -0.109375c3.69922 0.00976562 7.27539 0.416992 10.75 1.17969v-119.41c0 -8.83105 -7.16895 -16 -16 -16h-64c-8.83105 0 -16 7.16895 -16 16v91.3398
c0.429688 0.299805 0.870117 0.640625 1.29004 1c8.47363 -6.33984 19.0244 -10.1348 30.4004 -10.1797c22.3398 0 42.3896 14.6602 50.2295 36.1797z" />
    <glyph glyph-name="ring-primary" unicode="&#xf70b;" 
d="M256 384c145.94 0 256 -61.9102 256 -144v-98.1299c0 -78.3506 -114.62 -141.87 -256 -141.87s-256 63.5195 -256 141.87v98.1299c0 82.0898 110.06 144 256 144zM256 160c106 0 192 35.8203 192 80s-86 80 -192 80s-192 -35.8203 -192 -80s86 -80 192 -80z" />
    <glyph glyph-name="sheep-primary" unicode="&#xf711;" horiz-adv-x="640" 
d="M433.92 70.3398c1.08008 -0.0703125 2.21973 -0.109375 3.33008 -0.109375c3.69922 0.00976562 7.27539 0.416992 10.75 1.17969v-119.41c0 -8.83105 -7.16895 -16 -16 -16h-64c-8.83105 0 -16 7.16895 -16 16v91.3398c0.429688 0.299805 0.870117 0.640625 1.29004 1
c8.47363 -6.33984 19.0244 -10.1348 30.4004 -10.1797c22.3398 0 42.3896 14.6602 50.2295 36.1797zM193.46 29.1396l18.3496 -73.2598c0.311523 -1.24414 0.477539 -2.53906 0.477539 -3.87988c0 -8.83008 -7.16797 -15.999 -15.9971 -16h-66
c-7.48926 0.000976562 -13.7822 5.16602 -15.5205 12.1201l-16.8496 67.4102c-1.24512 4.97852 -1.91016 10.1152 -1.91016 15.4775c0 4.53223 0.472656 8.95508 1.37012 13.2227c8.45312 -6.02637 18.8398 -9.60059 30.0029 -9.60059h0.117188
c11.377 0.0380859 21.9648 3.7041 30.5801 9.86035c9.38281 -7.36426 21.2451 -11.7803 34.0859 -11.7803h0.09375c0.860352 0 1.70996 0.0703125 2.57031 0.0703125zM622.25 342c10.5127 -5.17773 17.7275 -15.9746 17.75 -28.4697
c0 -11.1406 -10.4102 -31.3301 -18 -44.5898c-4.43164 -7.74512 -12.7598 -12.9404 -22.3135 -12.9404h-0.0263672h-108.351c0.00292969 0.216797 -0.0292969 0.478516 -0.0292969 0.696289c0 12.2363 -3.79004 23.5947 -10.2607 32.9639
c-10.0898 14.5498 -26.1992 23.2402 -43.0898 23.2402c-1.12988 0 -2.26953 -0.0400391 -3.39941 -0.110352c-3.61816 10.251 -10.0859 19.0918 -18.5303 25.6104v77.5996c0 17.6611 14.3389 32 32 32s32 -14.3389 32 -32h64c17.6611 0 32 -14.3389 32 -32v-19.2197z
M512 336c8.83105 0 16 7.16895 16 16s-7.16895 16 -16 16s-16 -7.16895 -16 -16s7.16895 -16 16 -16z" />
    <glyph glyph-name="shield-cross-primary" unicode="&#xf712;" horiz-adv-x="448" 
d="M447.08 288c-1.21484 -21.7324 -3.77832 -43.0625 -7.59961 -64h-183.48v-277c-5.05957 -2.75 -10 -5.2002 -14.7695 -7.33008c-5.25098 -2.35742 -11.0723 -3.66895 -17.1963 -3.66895c-6.125 0 -12.0137 1.31152 -17.2646 3.66895
c-4.90918 2.19043 -9.83984 4.62012 -14.7695 7.25v277.08h-183.24c-3.89355 20.9229 -6.51172 42.2656 -7.75977 64h191v149.72l14.7695 6.58984c5.25098 2.35742 11.0723 3.66895 17.1963 3.66895c6.125 0 12.0137 -1.31152 17.2646 -3.66895l14.7695 -6.58984v-149.72
h191.08z" />
    <glyph glyph-name="shovel-primary" unicode="&#xf713;" 
d="M287.87 42.8701l-67.8701 -67.8701c-50 -50 -181 -45.2998 -203.66 -22.6504c-22.6602 22.6504 -27.3398 153.65 22.6602 203.65l67.8496 67.8799c5.79297 5.79102 13.792 9.375 22.6211 9.375s16.8369 -3.58398 22.6289 -9.375l135.771 -135.76
c5.79102 -5.79199 9.37402 -13.791 9.37402 -22.6211c0 -8.8291 -3.58301 -16.8369 -9.37402 -22.6289z" />
    <glyph glyph-name="slash-primary" unicode="&#xf715;" horiz-adv-x="640" 
 />
    <glyph glyph-name="snake-primary" unicode="&#xf716;" horiz-adv-x="640" 
d="M160 320c0 17.6611 -14.3389 32 -32 32s-32 -14.3389 -32 -32h-96c0 4.26758 0.209961 8.3623 0.629883 12.5195c6.42285 64.7197 61.0918 115.338 127.489 115.338c4.31836 0 8.46191 -0.0791016 12.6709 -0.49707c66.5 -6.48047 115.21 -66.2607 115.21 -133.07v-58.29
h-96v64zM0 192v64h96v-64h-96zM0 128h96c-0.0488281 -63.8066 -11.8311 -125.166 -33 -181.63c-5.23047 -13.8398 -24.8096 -13.8398 -30 0c-21.1689 56.4639 -32.9512 117.823 -33 181.63zM160 128v64h96v-64h-96zM320 64l96 -0.00976562
c0 -4.18066 -0.207031 -8.34375 -0.620117 -12.4902c-6.41992 -64.7451 -60.9824 -115.519 -127.404 -115.519c-4.30859 0 -8.56641 0.212891 -12.7656 0.628906c-64.5996 6.30957 -112.41 62.9092 -115.09 127.39h95.8799c0 -17.6611 14.3389 -32 32 -32s32 14.3389 32 32z
M640 237.31v-60.6094v-0.015625c0 -14.5068 -9.67676 -26.7656 -22.9199 -30.6846l-86.8799 -25.7002c-33.6201 -9.93945 -66.9004 9.07031 -78 39.6904h-4.2002c-17.6611 0 -32 -14.3389 -32 -32h-96c0 70.6445 57.3545 128.01 128 128.01h4.55957
c11.54 30.2803 44.8604 48.8096 78.25 38.54l86.5908 -26.6396c13.0791 -4.01953 22.5996 -16.2002 22.5996 -30.5908zM544 176c0 8.83105 -7.16895 16 -16 16s-16 -7.16895 -16 -16s7.16895 -16 16 -16s16 7.16895 16 16zM544 240c0 8.83105 -7.16895 16 -16 16
s-16 -7.16895 -16 -16s7.16895 -16 16 -16s16 7.16895 16 16z" />
    <glyph glyph-name="spider-primary" unicode="&#xf717;" horiz-adv-x="576" 
d="M573.31 98.6104c1.68945 -2.53613 2.67383 -5.58008 2.67383 -8.85254c0 -5.55469 -2.81152 -10.459 -7.11328 -13.3281l-13.3105 -8.87988c-2.53613 -1.68945 -5.58105 -2.6748 -8.85449 -2.6748c-5.55957 0 -10.4668 2.81641 -13.335 7.125l-48 72h-47.0605
l60.8301 -97.3301c3.06738 -4.91504 4.83984 -10.7188 4.83984 -16.9336c0 -0.0107422 0.0205078 -0.0556641 0.0205078 -0.0664062v-77.6699c0 -8.83105 -7.16895 -16 -16 -16h-16c-8.83105 0 -16 7.16895 -16 16v73.0996l-74.0801 118.53
c1 -14.0498 2.08008 -28.1104 2.08008 -42.21c0 -53.0703 -40.7598 -101.42 -96 -101.42s-96 48.3604 -96 101.43c0 14.1006 1.07031 28.1602 2.08008 42.21l-74.0801 -118.54v-73.0996c0 -8.83105 -7.16895 -16 -16 -16h-16c-8.83105 0 -16 7.16895 -16 16v77.7002
v0.046875c0 6.21094 1.79297 12.043 4.86035 16.9531l60.8301 97.2998h-47.0605l-48 -72c-2.86816 -4.30469 -7.76758 -7.14355 -13.3242 -7.14355c-3.27539 0 -6.32812 1.01172 -8.86523 2.70312l-13.3105 8.86035c-4.30469 2.86914 -7.14355 7.76758 -7.14355 13.3242
c0 3.27539 1.01172 6.3291 2.7041 8.86621l52.7393 79.1299c5.7373 8.6123 15.5156 14.2588 26.6299 14.2598h77.9404l-69 24.3398c-6.81543 2.27441 -12.5889 6.74023 -16.5 12.6104l-53.5996 80.4102c-1.69238 2.53711 -2.67773 5.58398 -2.67773 8.85938
c0 5.55566 2.8125 10.4619 7.11719 13.3301l13.3105 8.87988c2.53809 1.69336 5.58594 2.68164 8.86328 2.68164c5.55371 0 10.457 -2.81055 13.3262 -7.11133l50.5703 -75.8301l60.4902 -20.1699h36.0996l10.3701 51.8496c2.18945 10.96 17.3701 60.1504 69.6299 60.1504
s67.4404 -49.1797 69.6299 -60.1504l10.3701 -51.8496h36.0996l60.5 20.1699l50.5605 75.8301c2.86816 4.30469 7.76758 7.14355 13.3242 7.14355c3.27539 0 6.32812 -1.01172 8.86523 -2.70312l13.3105 -8.88086c4.30469 -2.86816 7.14355 -7.76758 7.14355 -13.3232
c0 -3.27539 -1.01172 -6.3291 -2.7041 -8.86621l-53.5996 -80.4102c-3.90918 -5.87305 -9.68359 -10.3428 -16.5 -12.6201l-69 -24.3398h77.9404c11.1084 -0.00195312 20.8828 -5.64453 26.6191 -14.25z" />
    <glyph glyph-name="spider-black-widow-primary" unicode="&#xf718;" horiz-adv-x="576" 
d="M573.31 98.6201c1.68945 -2.53613 2.69922 -5.58691 2.69922 -8.85938c0 -5.55469 -2.83691 -10.4512 -7.13867 -13.3203l-13.3105 -8.88086c-2.53711 -1.69141 -5.58984 -2.70312 -8.86523 -2.70312c-5.55664 0 -10.4561 2.83887 -13.3242 7.14355l-48 72h-47.0605
l60.8301 -97.2998c3.06738 -4.91504 4.86035 -10.7529 4.86035 -16.9678v-0.0322266v-77.7002c0 -8.83105 -7.16895 -16 -16 -16h-16c-8.83105 0 -16 7.16895 -16 16v73.0996l-74.0801 118.54c1.00977 -14.0498 2.08008 -28.1094 2.08008 -42.21
c0 -53.0693 -40.7598 -101.43 -96 -101.43s-96 48.3496 -96 101.42c0 14.0996 1.08008 28.1602 2.08008 42.21l-74.0801 -118.53v-73.0996c0 -8.83105 -7.16895 -16 -16 -16h-16c-8.83105 0 -16 7.16895 -16 16v77.6602
c0 0.0107422 0.0205078 0.0546875 0.0205078 0.0664062c0 6.21484 1.77246 12.0186 4.83984 16.9336l60.8301 97.3398h-47.0605l-48 -72c-2.86816 -4.30859 -7.77539 -7.125 -13.335 -7.125c-3.27344 0 -6.31836 0.985352 -8.85449 2.6748l-13.3105 8.87988
c-4.30469 2.86914 -7.11816 7.77441 -7.11816 13.3311c0 3.27539 0.986328 6.32227 2.67871 8.85938l52.75 79.1299c5.7373 8.60742 15.5186 14.25 26.6299 14.25h77.9297l-69 24.3496c-6.82031 2.28516 -12.5947 6.76562 -16.5 12.6504l-53.5996 80.3701
c-1.69238 2.53711 -2.7041 5.59082 -2.7041 8.86621c0 5.55566 2.83887 10.4551 7.14355 13.3232l13.3105 8.88086c2.53711 1.69141 5.58984 2.70312 8.86523 2.70312c5.55664 0 10.4561 -2.83887 13.3242 -7.14355l50.5605 -75.8203l60.5 -20.1797h36.0996l10.3701 51.8496
c2.18945 10.9707 17.3701 60.1504 69.6299 60.1504s67.4404 -49.1904 69.6299 -60.1504l10.3701 -51.8496h36.0996l60.4902 20.1699l50.5703 75.8301c2.86816 4.30762 7.77539 7.12207 13.334 7.12207c3.27832 0 6.32715 -0.987305 8.86621 -2.68164l13.3096 -8.88086
c4.30469 -2.86816 7.11816 -7.77344 7.11816 -13.3301c0 -3.27539 -0.986328 -6.32227 -2.67773 -8.85938l-53.6006 -80.4102c-3.91309 -5.87109 -9.69043 -10.3379 -16.5098 -12.6104l-69 -24.3496h77.9404c11.1094 -0.00390625 20.8848 -5.65039 26.6191 -14.2598z
M326.4 92.79l-26.4004 35.21l26.4004 35.2002c1.00195 1.33594 1.59961 3.00293 1.59961 4.7998c0 4.41504 -3.58496 8 -8 8h-64c-4.41504 0 -7.99609 -3.5918 -7.99609 -8.00684c0 -1.79688 0.59375 -3.45703 1.5957 -4.79297l26.4004 -35.2002l-26.4004 -35.2002
c-1.00195 -1.33594 -1.59961 -3.00293 -1.59961 -4.7998c0 -4.41504 3.58496 -8 8 -8h64c4.41211 0.00390625 7.98828 3.59375 7.98828 8.00684c0 1.79297 -0.59082 3.44824 -1.58789 4.7832z" />
    <glyph glyph-name="spider-web-primary" unicode="&#xf719;" horiz-adv-x="576" 
d="M566.63 214.52c5.7998 -5.79297 9.38965 -13.8066 9.38965 -22.6436c0 -8.83789 -3.58984 -16.8428 -9.38965 -22.6357l-2.87012 -2.87012c-55.9277 -55.9424 -96.9268 -126.967 -116.76 -206.13c-3.49512 -13.8838 -16.0557 -24.1846 -31.0176 -24.1846
c-2.66895 0 -5.2627 0.327148 -7.74219 0.944336c-38.5752 9.61523 -78.4844 14.7197 -120.019 14.7197s-81.8867 -5.10449 -120.462 -14.7197c-2.47949 -0.617188 -5.05566 -0.933594 -7.72559 -0.933594c-14.9619 0 -27.5391 10.29 -31.0342 24.1738
c-19.833 79.1631 -60.832 150.188 -116.76 206.13l-2.87012 2.87012c-5.7998 5.79297 -9.38965 13.8066 -9.38965 22.6445c0 8.83691 3.58984 16.8418 9.38965 22.6348l2.79004 2.79004c55.9824 55.9844 97.0137 127.079 116.84 206.32v0.120117
c3.49219 13.8877 16.0547 24.1943 31.0195 24.1943c2.66895 0 5.26172 -0.327148 7.74023 -0.944336c38.5771 -9.61035 78.4844 -14.7129 120.019 -14.7129c41.5332 0 81.8848 5.10254 120.462 14.7129c2.49805 0.626953 5.09668 0.949219 7.78906 0.949219
c14.9707 0 27.5547 -10.3027 31.041 -24.1992v-0.120117c19.8057 -79.2344 60.8135 -150.328 116.77 -206.32zM393.45 5.76953c22.0488 69.6494 58.665 133.019 106.33 186.12c-47.6973 53.167 -84.3262 116.618 -106.36 186.351
c-34.2949 -6.5498 -68.7666 -9.97754 -104.958 -9.97754c-36.1904 0 -71.5869 3.42773 -105.882 9.97754c-22.0342 -69.7324 -58.6631 -133.184 -106.36 -186.351c47.665 -53.1016 84.2812 -116.471 106.33 -186.12c34.3057 6.5459 68.7861 9.97266 104.987 9.97266
c36.2002 0 71.6074 -3.42676 105.913 -9.97266zM370.14 334.63c5.38867 -3.25391 9.37207 -8.55664 10.9199 -14.8301c10.5107 -42.0029 32.2627 -79.6875 61.9404 -109.359l1.44043 -1.48047c4.36133 -4.34668 7.0625 -10.3652 7.0625 -17.0029
c0 -6.63867 -2.70117 -12.6504 -7.0625 -16.9971l-1.56055 -1.57031c-29.6436 -29.6582 -51.373 -67.3125 -61.8799 -109.279c-2.61426 -10.4238 -12.0391 -18.1602 -23.2676 -18.1602c-1.99023 0 -3.92285 0.242188 -5.77246 0.700195
c-20.5107 5.11035 -41.7285 7.82324 -63.8115 7.82324c-22.084 0 -43.5381 -2.71289 -64.0488 -7.82324c-1.86523 -0.466797 -3.80566 -0.706055 -5.81543 -0.706055c-11.2334 0 -20.6748 7.73535 -23.2842 18.166c-10.5381 41.9561 -32.293 79.5918 -61.96 109.229
l-1.55957 1.57031c-4.3623 4.34668 -7.0625 10.3652 -7.0625 17.0029s2.7002 12.6504 7.0625 16.9971l1.51953 1.51953c29.7021 29.6777 51.4736 67.3711 62 109.391c2.61133 10.457 12.0615 18.2217 23.3223 18.2217c1.98047 0 3.90625 -0.239258 5.74805 -0.692383
c20.5098 -5.11035 41.7285 -7.82324 63.8115 -7.82324s43.5381 2.71289 64.0479 7.82324c1.87012 0.46875 3.84277 0.704102 5.85645 0.704102c4.5166 0 8.74414 -1.25 12.3535 -3.42383zM341 98c11.8145 34.8008 30.1934 66.666 53.6797 93.9297
c-23.502 27.3018 -41.8838 59.2178 -53.6797 94.0703c-17.3203 -2.97266 -34.5498 -4.52246 -52.7129 -4.52246s-35.9668 1.5498 -53.2871 4.52246c-11.792 -34.8467 -30.167 -66.7598 -53.6602 -94.0596c23.4805 -27.2686 41.8535 -59.1377 53.6602 -93.9404
c17.3193 2.97461 34.5498 4.52441 52.7129 4.52441s35.9678 -1.5498 53.2871 -4.52441z" />
    <glyph glyph-name="squirrel-primary" unicode="&#xf71a;" 
d="M479.84 0c17.6621 0 32.0098 -14.3389 32.0098 -32v-16c0 -8.83105 -7.16895 -16 -16 -16h-232.08c-24.8594 0.0703125 -42.25 24.6602 -34.3994 48.2402l97.0996 291.47c15.1807 45.5596 41.4004 108.29 89.4004 108.29v-32
c50.8496 0 84.9697 -40.4199 95.4102 -89.1299c0.457031 -2.15918 0.696289 -4.37598 0.696289 -6.66992c0 -17.748 -14.3887 -32.1611 -32.127 -32.2002h-47.8496v-98.9102c25.7695 -8.28027 47.8496 -34.54 47.8496 -61.0898c0 -21.8799 -12.7393 -45.5996 -30.9297 -64
h30.9199zM415.84 288c0 -8.82031 7.18359 -15.9834 16 -16c8.83105 0 16 7.16895 16 16s-7.16895 16 -16 16c-8.83008 0 -16 -7.16895 -16 -16z" />
    <glyph glyph-name="staff-primary" unicode="&#xf71b;" 
d="M512 368v-103.86c0 -36.5195 -24.5371 -67.3486 -58 -76.9199l-168.92 -48.2695c-13.2529 -3.78906 -25.1318 -10.8848 -34.6201 -20.3701l-175.55 -175.58c-4.34277 -4.33496 -10.3369 -7.01758 -16.9521 -7.01758c-6.61426 0 -12.6152 2.68262 -16.958 7.01758l-34 34
c-4.33203 4.34277 -7.01172 10.334 -7.01172 16.9463s2.67969 12.6113 7.01172 16.9541l149.13 149.1l26.4805 26.4805c20.8574 20.8535 46.9727 36.4541 76.1094 44.7793l157.28 44.9404v75.7998h-50.3203l-11.5801 -23.1504
c-2.625 -5.25098 -8.05469 -8.86133 -14.3203 -8.86133c-2.5625 0 -4.99121 0.628906 -7.13965 1.70215l-57.2598 28.6299c-5.24707 2.62598 -8.85352 8.05371 -8.85352 14.3164c0 2.56445 0.629883 4.99414 1.7041 7.14355l16 32
c13.127 26.252 40.2246 44.2188 71.5498 44.2197h76.2197c44.1533 0 80 -35.8467 80 -80z" />
    <glyph glyph-name="sword-primary" unicode="&#xf71c;" 
d="M4.05957 23c-2.50781 2.5166 -4.05957 5.9873 -4.05957 9.81836c0 3.83008 1.55176 7.30469 4.05957 9.82129l17.2803 17.29c2.51758 2.50391 5.98633 4.05176 9.81348 4.05176c2.21582 0 4.32617 -0.529297 6.18652 -1.45117l29.3105 -14.6299l53.4297 53.4297
l-53.3896 80.0898c-1.69238 2.53711 -2.67773 5.58398 -2.67773 8.85938c0 4.41602 1.78027 8.43457 4.67773 11.3311l18.79 18.7998c2.89551 2.89355 6.89355 4.68457 11.3076 4.68457c4.41309 0 8.41602 -1.79102 11.3115 -4.68457l174.301 -174.3
c2.89648 -2.89648 4.68945 -6.89746 4.68945 -11.3135s-1.79297 -8.4209 -4.68945 -11.3164l-18.8008 -18.79c-2.89551 -2.89453 -6.89453 -4.68555 -11.3076 -4.68555c-3.27344 0 -6.33594 0.996094 -8.87207 2.68555l-80.0898 53.3896l-53.4297 -53.4297l14.6191 -29.2607
c0.932617 -1.86133 1.45703 -3.96289 1.45703 -6.18457c0 -3.82617 -1.54492 -7.30762 -4.05664 -9.81543l-17.29 -17.29c-2.5127 -2.5127 -5.98242 -4.06738 -9.8125 -4.06738c-3.83105 0 -7.30469 1.55469 -9.81738 4.06738z" />
    <glyph glyph-name="swords-primary" unicode="&#xf71d;" 
d="M389.37 138.62l-80.0303 -80l-296 296.05l-13.2002 78.1104c-0.0888672 0.623047 -0.148438 1.24805 -0.148438 1.89551c0 7.35156 5.96875 13.3203 13.3193 13.3203c0.648438 0 1.28613 -0.046875 1.90918 -0.135742l78.1504 -13.2402zM507.31 -14.0596
c2.88574 -2.89551 4.6709 -6.8916 4.6709 -11.2979c0 -4.42578 -1.80176 -8.43457 -4.71094 -11.333l-22.6191 -22.6191c-2.89648 -2.89746 -6.90137 -4.69043 -11.3174 -4.69043s-8.41699 1.79297 -11.3135 4.69043l-59.3096 59.3096l-59 -31.6396
c-2.24707 -1.2041 -4.83301 -1.89941 -7.55859 -1.89941c-4.41504 0 -8.41504 1.79297 -11.3115 4.68945l-17.5303 17.54c-2.89355 2.89551 -4.68457 6.89844 -4.68457 11.3115c0 4.41406 1.79102 8.41211 4.68457 11.3076l129.37 129.341
c2.89648 2.89648 6.90137 4.68945 11.3174 4.68945s8.41699 -1.79297 11.3125 -4.68945l17.54 -17.5303c2.89648 -2.89648 4.67676 -6.91504 4.67676 -11.3311c0 -2.72461 -0.682617 -5.29199 -1.88672 -7.53906l-31.6396 -59z" />
    <glyph glyph-name="tombstone-primary" unicode="&#xf720;" 
d="M496 0c8.83105 0 16 -7.16895 16 -16v-32c0 -8.83105 -7.16895 -16 -16 -16h-480c-8.83105 0 -16 7.16895 -16 16v32c0 8.83105 7.16895 16 16 16h480zM176 248c-8.83105 0 -16 7.16895 -16 16v16c0 8.83105 7.16895 16 16 16h56v48c0 8.83105 7.16895 16 16 16h16
c8.83105 0 16 -7.16895 16 -16v-48h56c8.83105 0 16 -7.16895 16 -16v-16c0 -8.83105 -7.16895 -16 -16 -16h-56v-128c0 -8.83105 -7.16895 -16 -16 -16h-16c-8.83105 0 -16 7.16895 -16 16v128h-56z" />
    <glyph glyph-name="tombstone-alt-primary" unicode="&#xf721;" 
d="M512 -16v-32c0 -8.83105 -7.16895 -16 -16 -16h-480c-8.83105 0 -16 7.16895 -16 16v32c0 8.83105 7.16895 16 16 16h480c8.83105 0 16 -7.16895 16 -16z" />
    <glyph glyph-name="tractor-primary" unicode="&#xf722;" horiz-adv-x="640" 
d="M640 256v-50.7598c0 -8.8291 -3.5791 -16.8379 -9.37012 -22.6299l-50.8203 -50.8105c-15.6074 7.68555 -33.2705 12.1084 -51.8096 12.2002c-39.1396 0 -73.5498 -19 -95.46 -48h-80.54v38c0 12.1426 -9.85742 22 -22 22h-7.13965
c-2.97168 9.98535 -7.00879 19.7158 -11.8604 28.7305l5.05957 5.05957c3.98145 3.98242 6.44531 9.48145 6.44531 15.5518s-2.46387 11.5762 -6.44531 15.5586l-31.1592 31.0996c-3.98242 3.98145 -9.48242 6.44531 -15.5527 6.44531s-11.5752 -2.46387 -15.5576 -6.44531
l-5.05957 -5.05957c-9.01074 4.87598 -18.7402 8.93359 -28.7305 11.9199v7.13965c0 12.1426 -9.85742 22 -22 22h110l-41.1104 96h-106.89v-96h-6c-12.1426 0 -22 -9.85742 -22 -22v-7.13965c-9.98242 -2.97168 -19.709 -7.00879 -28.7197 -11.8604l-5.06055 5
c-0.701172 0.695312 -1.43262 1.33105 -2.21973 1.92969v146.07c0.0273438 26.4795 21.5205 47.9727 48 48h133.45h0.0507812c19.7949 0 36.7793 -11.9971 44.0791 -29.1396l56.0898 -130.86h102.33v40.2002c0.0195312 31.0156 11.1191 59.5508 29.5 81.7197
c2.98535 3.70996 7.5625 6.08691 12.6904 6.08691c4.75684 0 9.03223 -2.0498 12.0098 -5.30664l21.6299 -24.1699c4.87012 -5.43066 5.74023 -13.6904 1.32031 -19.4902c-8.22168 -10.7666 -13.1396 -24.2627 -13.1504 -38.8398v-40.2002h64c17.6611 0 32 -14.3389 32 -32z
" />
    <glyph glyph-name="treasure-chest-primary" unicode="&#xf723;" horiz-adv-x="576" 
d="M96 192v224h64v-224h-64zM96 -32v192h64v-192h-64zM416 -32v192h64v-192h-64zM416 416h64v-224h-64v224zM336 256c8.83105 0 16 -7.16895 16 -16v-128c0 -8.83105 -7.16895 -16 -16 -16h-96c-8.83105 0 -16 7.16895 -16 16v128c0 8.83105 7.16895 16 16 16h96zM304 144
v64c0 8.83105 -7.16895 16 -16 16s-16 -7.16895 -16 -16v-64c0 -8.83105 7.16895 -16 16 -16s16 7.16895 16 16z" />
    <glyph glyph-name="trees-primary" unicode="&#xf724;" horiz-adv-x="640" 
d="M381.86 45.2402c-3.7207 -7.84277 -11.7139 -13.2715 -20.9648 -13.2715c-0.0166016 0 -0.0195312 0.0214844 -0.0351562 0.0214844h-337.73h-0.0615234c-9.24805 0 -17.2236 5.4082 -20.9385 13.25c-1.35742 2.86328 -2.11719 6.06445 -2.11719 9.44238
c0 5.68457 2.14355 10.9004 5.67773 14.8174l79.8896 90.5h-30.5801c-0.0869141 -0.000976562 -0.173828 -0.00195312 -0.260742 -0.00195312c-9.10254 0 -16.9443 5.34473 -20.5693 13.082c-1.37402 2.875 -2.14355 6.09375 -2.14355 9.49023
c0 5.53906 2.03809 10.6338 5.41406 14.5098l78.1396 90.9199h-28.8896h-0.0957031c-9.29395 0 -17.2773 5.58789 -20.7744 13.5996c-1.16504 2.7002 -1.81055 5.6748 -1.81055 8.7998c0 5.90332 2.29297 11.2959 6.0498 15.2803l110.28 117.48
c6 6.4502 17.3203 6.4502 23.3203 0l110.27 -117.47c3.75488 -3.9873 6.05762 -9.3584 6.05762 -15.2617c0 -3.12305 -0.654297 -6.12012 -1.81738 -8.81836c-3.50098 -8.01855 -11.5029 -13.6279 -20.8047 -13.6279
c-0.0224609 0 -0.0332031 0.0175781 -0.0556641 0.0175781h-28.8896l78.1299 -91c3.38574 -3.87012 5.43945 -8.93555 5.43945 -14.4766c0 -3.39844 -0.780273 -6.64844 -2.15918 -9.52344c-3.64453 -7.69434 -11.4824 -13.0215 -20.5557 -13.0215
c-0.0800781 0 -0.143555 0.0205078 -0.224609 0.0214844h-30.6299l79.8799 -90.5c3.53125 -3.91992 5.68066 -9.1084 5.68066 -14.7939c0 -3.375 -0.766602 -6.60352 -2.12012 -9.46582z" />
    <glyph glyph-name="turtle-primary" unicode="&#xf726;" horiz-adv-x="576" 
d="M68.25 192c-23.54 0 -41 19.7998 -35.0996 40c20 69 90.5293 152 174.439 152h0.820312c83.9199 0 154.43 -83 174.45 -152c5.87012 -20.2402 -11.5605 -40 -35.1006 -40h-279.51z" />
    <glyph glyph-name="unicorn-primary" unicode="&#xf727;" horiz-adv-x="640" 
d="M535.35 393.2c5.32617 -5.67969 8.59082 -13.3242 8.59082 -21.7168v-0.0830078l0.0595703 -77.71c0 -0.0146484 0.0185547 -0.015625 0.0185547 -0.0302734c0 -13.4756 -8.34766 -25.0166 -20.1484 -29.7305l-32.5498 -13
c-3.66992 -1.46777 -7.67383 -2.31934 -11.8652 -2.31934c-12.5186 0 -23.3682 7.2041 -28.625 17.6895l-18.9004 37.7002l-15.9297 7.11035h-0.0800781v-55.5205c0.0498047 0.126953 0.0791016 0.265625 0.0800781 0.410156l-0.0800781 -32v-15.3604
c0.00976562 -0.219727 0.0800781 -0.419922 0.0800781 -0.639648c0 -0.015625 0.0107422 -0.0498047 0.0107422 -0.0654297c0 -30.4297 -12.2178 -58.0283 -32.0107 -78.1543v-177.78c0 -8.83105 -7.16895 -16 -16 -16h-64c-8.83105 0 -16 7.16895 -16 16v150.42
l-101 22.3105l-23.8096 -63.5908l26.3291 -105.26c0.311523 -1.24414 0.477539 -2.53906 0.477539 -3.87988c0 -8.83008 -7.16797 -15.999 -15.9971 -16h-66c-7.47363 0.0136719 -13.75 5.16992 -15.4902 12.1104l-24.8496 99.4092
c-1.24609 4.98242 -1.89062 10.1953 -1.89062 15.5605c0 7.89355 1.43164 15.4561 4.05078 22.4395l25.6201 68.3604c-18.7422 17.5244 -30.4316 42.4629 -30.4316 70.1201c0 52.9814 43.0107 95.9951 95.9912 96h126.91c0 70.6455 57.3545 128 128 128h120
c0.52832 0 1.03906 -0.0517578 1.54004 -0.150391c3.72168 -0.72168 6.54102 -3.99414 6.54102 -7.92578c0 -0.535156 -0.0517578 -1.05762 -0.151367 -1.56348c-2.67969 -13.1699 -11.1201 -23.8203 -22.1797 -30.6602c5.10938 -5.37988 9.91016 -10.5 13.6895 -14.5z
M479.93 352c8.83105 0 16 7.16895 16 16s-7.16895 16 -16 16c-8.83008 0 -16 -7.16895 -16 -16s7.16992 -16 16 -16z" />
    <glyph glyph-name="user-injured-primary" unicode="&#xf728;" horiz-adv-x="448" 
d="M256 32c26.4922 0 48 -21.5078 48 -48s-21.5078 -48 -48 -48h-12.71l-42.6699 96h55.3799zM352 320c0 -70.6455 -57.3545 -128 -128 -128s-128 57.3545 -128 128c0 5.48047 0.94043 10.7002 1.61035 16h252.779c0.660156 -5.2998 1.61035 -10.5195 1.61035 -16z
M313.6 160c74.1777 0 134.4 -60.2227 134.4 -134.4v-41.5996c0 -26.4922 -21.5078 -48 -48 -48h-80.4102c10.2139 13.29 16.3457 29.9736 16.4102 48c-0.0498047 44.1299 -35.8701 79.9502 -80 80h-69.5898l-42.6699 96h7.37012
c22.1377 -10.2129 47.0771 -15.9111 73.0391 -15.9111s50.6025 5.69824 72.7402 15.9111h16.71zM0 25.5996c0 41.1406 18.8799 77.5107 48 102.16v-191.76c-26.4922 0 -48 21.5078 -48 48v41.5996z" />
    <glyph glyph-name="vr-cardboard-primary" unicode="&#xf729;" horiz-adv-x="640" 
d="M160 272c35.3223 0 64 -28.6777 64 -64s-28.6777 -64 -64 -64s-64 28.6777 -64 64s28.6777 64 64 64zM480 272c35.3223 0 64 -28.6777 64 -64s-28.6777 -64 -64 -64s-64 28.6777 -64 64s28.6777 64 64 64z" />
    <glyph glyph-name="wand-magic-primary" unicode="&#xf72b;" 
d="M507.87 401.82l-410.711 -455.261c-5.85742 -6.46582 -14.3184 -10.5293 -23.7207 -10.5293c-8.23926 0 -15.7646 3.13672 -21.4395 8.25977c-0.399414 0.360352 -0.789062 0.730469 -1.16895 1.11035l-41.46 41.4297c-5.79102 5.79199 -9.375 13.791 -9.375 22.6201
c0 8.83008 3.58398 16.8379 9.375 22.6299c0.379883 0.379883 0.769531 0.75 1.16016 1.11035l455.26 410.699c2.83594 2.55566 6.58887 4.11133 10.7031 4.11133c4.40332 0 8.40234 -1.77832 11.2969 -4.66113l19.4795 -19.4697
c2.91211 -2.89844 4.71582 -6.90918 4.71582 -11.3389c0 -4.11328 -1.56055 -7.875 -4.11523 -10.7109z" />
    <glyph glyph-name="wheat-primary" unicode="&#xf72d;" 
d="M9.37988 -9.37988l72.2705 72.29c-22.2705 22.5303 -39.8506 50.4502 -40.9307 78.9297c1.14062 33.4902 24.0703 65.1406 52 89.5205c6.24023 -4.69043 52.2402 -42.8701 52.3203 -89.7305c-0.295898 -6.33203 -1.33203 -12.5166 -3 -18.3896l41.4902 41.4795
c-22.2803 22.5303 -39.8398 50.4502 -40.9307 78.9307c1.15039 33.4893 24.0801 65.1396 52 89.5195c6.24023 -4.68945 52.2402 -42.8701 52.3203 -89.7295c-0.300781 -6.33105 -1.33691 -12.5156 -3 -18.3906l41.4902 41.4805
c-22.4102 22.5293 -39.9697 50.4697 -41.0703 78.9297c1.16992 33.4902 24.1006 65.1396 52 89.5205c4.7998 -3.60059 32.9404 -27.1006 45.79 -59c-9.62012 -38.5508 -5 -73.5908 -4.63965 -75.8809l3.63965 -25.6992l25.8701 -1.76074
c6.2998 -0.419922 12.6602 -0.639648 19 -0.639648c18.0098 0.0634766 35.4277 2.30664 52.1797 6.4502c26.75 -10.2402 48.6904 -31.4404 61.4502 -46c-24 -27.4307 -56.5303 -51 -89.7295 -52.3203c-29.0508 1 -56.6699 18.4004 -79.4004 41.1699l-41.4199 -41.4102
c6.13477 1.67188 12.5713 2.61523 19.21 2.70996c39.2402 -1.35938 72.5195 -32.5293 89.5195 -52c-24 -27.4297 -56.5195 -51 -89.7393 -52.3193c-29 1 -56.6602 18.3994 -79.3906 41.1699l-41.3994 -41.4502c6.13086 1.67383 12.5635 2.61719 19.2002 2.70996
c39.2393 -1.36035 72.5098 -32.5303 89.5098 -52c-24 -27.4297 -56.5205 -51 -89.7207 -52.3203c-29.0498 1 -56.6797 18.4004 -79.4092 41.1699l-72.2402 -72.1797c-5.83203 -6.13867 -14.0723 -9.96777 -23.1992 -9.96777c-17.6611 0 -32 14.3389 -32 32
c0 9.12695 3.82031 17.376 9.95898 23.208z" />
    <glyph glyph-name="wine-bottle-primary" unicode="&#xf72f;" 
d="M507.3 375.43c2.89746 -2.89551 4.68945 -6.90137 4.68945 -11.3174c0 -4.41016 -1.78809 -8.40723 -4.67969 -11.3027l-22.6299 -22.6299c-2.89551 -2.89648 -6.90137 -4.68945 -11.3174 -4.68945c-4.41504 0 -8.41602 1.79297 -11.3125 4.68945l-76.6699 -76.6699
c6.51074 -15.335 10.1895 -32.3066 10.1895 -50.0039c0 -35.2666 -14.3027 -67.2178 -37.4189 -90.3662l-158.391 -158.39c-11.584 -11.585 -27.6025 -18.7539 -45.2637 -18.7539s-33.6611 7.16895 -45.2461 18.7539l-90.5098 90.5098
c-11.585 11.585 -18.7549 27.6025 -18.7549 45.2637c0 17.6621 7.16992 33.6621 18.7549 45.2461l158.38 158.381c23.1484 23.1162 55.208 37.3418 90.4736 37.3418c17.6982 0 34.5615 -3.60156 49.8965 -10.1123l76.6699 76.6699
c-2.89746 2.89648 -4.69043 6.90137 -4.69043 11.3174s1.79297 8.41699 4.69043 11.3125l22.6299 22.6299c2.89648 2.89746 6.90137 4.69043 11.3174 4.69043s8.41602 -1.79297 11.3125 -4.69043zM179.21 24.71l122 122l-90.5098 90.5098l-122 -122z" />
    <glyph glyph-name="book-heart-secondary" unicode="&#x10f499;" horiz-adv-x="448" 
d="M96 0c-19.2002 0 -32 12.7998 -32 32s16 32 32 32h319.33c-1.92969 -16.2402 -1.75977 -48.3799 0.530273 -64h-319.86z" />
    <glyph glyph-name="menorah-secondary" unicode="&#x10f676;" horiz-adv-x="640" 
d="M480 384c0 17.6699 32 64 32 64s32 -46.3301 32 -64c0 -17.6611 -14.3389 -32 -32 -32s-32 14.3389 -32 32zM384 384c0 17.6699 32 64 32 64s32 -46.3301 32 -64c0 -17.6611 -14.3389 -32 -32 -32s-32 14.3389 -32 32zM0 384c0 17.6699 32 64 32 64s32 -46.3301 32 -64
c0 -17.6611 -14.3389 -32 -32 -32s-32 14.3389 -32 32zM288 384c0 17.6699 32 64 32 64s32 -46.3301 32 -64c0 -17.6611 -14.3389 -32 -32 -32s-32 14.3389 -32 32zM192 384c0 17.6699 32 64 32 64s32 -46.3301 32 -64c0 -17.6611 -14.3389 -32 -32 -32s-32 14.3389 -32 32z
M96 384c0 17.6699 32 64 32 64s32 -46.3301 32 -64c0 -17.6611 -14.3389 -32 -32 -32s-32 14.3389 -32 32zM608 448c0 0 32 -46.3301 32 -64c0 -17.6611 -14.3389 -32 -32 -32s-32 14.3389 -32 32c0 17.6699 32 64 32 64z" />
    <glyph glyph-name="acorn-secondary" unicode="&#x10f6ae;" horiz-adv-x="448" 
d="M32 192h384c0 -101.376 -58.1475 -189.073 -143.11 -231.55l-48.8896 -24.4502l-48.8896 24.4502c-84.9629 42.4766 -143.11 130.174 -143.11 231.55z" />
    <glyph glyph-name="alicorn-secondary" unicode="&#x10f6b0;" horiz-adv-x="640" 
d="M64.3604 232.26c-9.93652 -7.26758 -16.3955 -19.0137 -16.3955 -32.2568c0 -0.0078125 0.0351562 0.00488281 0.0351562 -0.00292969v-56c0 -8.83105 -7.16895 -16 -16 -16h-16c-8.83105 0 -16 7.16895 -16 16v56c0 48.5684 39.4316 88 88 88h0.450195
c-13.4756 -15.0195 -22.2842 -34.457 -24.0898 -55.7402zM632 416c4.39844 -0.0205078 7.9707 -3.59277 7.9707 -7.99512c0 -2.77344 -1.41406 -5.21973 -3.56055 -6.65527l-92.4902 -36.6895v6.74023c0 0.0292969 -0.000976562 0.0683594 -0.000976562 0.0976562
c0 8.38867 -3.25879 16.0225 -8.5791 21.7021c-3.78027 4.03027 -8.58008 9.12012 -13.6895 14.5c3.79004 2.34082 7.20801 5.10352 10.2793 8.2998h100.07z" />
    <glyph glyph-name="apple-crate-secondary" unicode="&#x10f6b1;" 
d="M424.17 367.39c48.6699 -8.73926 59.0801 -71.9199 53.8301 -111.39h-159.8c3.56934 32.6104 -1.33008 74.7598 -22.1699 104.91c-1.66992 2.41016 -3.68066 4.37012 -5.5 6.58008c18.7002 -0.790039 44.1494 -8.27051 61.1494 -17.79
c20.5898 11.5098 54.3604 20.6895 72.4902 17.6895zM210.53 397.53c-12.25 -11.4307 -31.5303 -14.5303 -50.0205 -13.2803c-0.509766 3.86035 -3.30957 33.6201 13.2402 50.2197c14.3301 13.4004 37.1201 14.1406 50 13.2803
c1.25 -18.1904 -1.92969 -38.0303 -13.2197 -50.2197zM402.22 397.53c-12.2197 -11.4307 -31.5498 -14.5303 -50 -13.2803c-0.549805 3.86035 -3.30957 33.6201 13.2207 50.2197c14.3291 13.4004 37.1191 14.1406 50 13.2803
c1.20996 -18.2197 -1.93066 -38.0303 -13.2207 -50.2197zM232.48 367.39c48.6699 -8.73926 59.0791 -71.9199 53.8193 -111.39h-252.6c-5.16992 39.1201 5.20996 102.66 53.8193 111.39c18.0508 3.02051 51.8203 -6.12988 72.4805 -17.6895
c20.5801 11.5098 54.3496 20.6895 72.4805 17.6895z" />
    <glyph glyph-name="axe-secondary" unicode="&#x10f6b2;" horiz-adv-x="640" 
d="M592 288h48v-32c0 -123.71 -100.29 -224 -224 -224h-32v48h32c97 0 176 78.9502 176 176v32zM4.69043 8.57031l235.88 235.87l67.8799 -67.8809l-235.82 -235.869c-2.89648 -2.89746 -6.90137 -4.69043 -11.3174 -4.69043s-8.41602 1.79297 -11.3125 4.69043
l-45.3096 45.25c-2.89746 2.89551 -4.69043 6.90039 -4.69043 11.3164s1.79297 8.41699 4.69043 11.3135zM507.31 375.43l-34.5 -34.5l-67.8799 67.8799l34.5 34.5c2.89648 2.89746 6.90137 4.69043 11.3174 4.69043s8.41699 -1.79297 11.3125 -4.69043l45.25 -45.25
c2.89746 -2.89551 4.69043 -6.90039 4.69043 -11.3164s-1.79297 -8.41699 -4.69043 -11.3135z" />
    <glyph glyph-name="axe-battle-secondary" unicode="&#x10f6b3;" 
d="M512 287.08l-62.7598 -31.0801l62.7598 -31.1201c-6.83984 -61.7695 -33.5996 -116.63 -73.0596 -156.22c-9.20996 -9.20996 -23.8906 -4.08008 -27.0605 9c-12.0303 49.6699 -47.25 88.2295 -91.8799 101.229v154.181c44.6299 12.96 79.8799 51.5596 91.8799 101.229
c3.16992 13.1201 17.8506 18.25 27.0605 9c39.46 -39.5898 66.2197 -94.46 73.0596 -156.22zM101 434.34c11.9199 -49.6699 46.79 -88.2695 91 -101.229v-154.181c-44.21 -12.96 -79.0801 -51.5596 -91 -101.229c-3.13965 -13.1201 -17.6699 -18.25 -26.7998 -9
c-45.5303 46.1299 -74.2002 112.92 -74.2002 187.3s28.6699 141.17 74.2002 187.3c9.12012 9.24023 23.6602 4.12012 26.7998 -8.95996z" />
    <glyph glyph-name="bat-secondary" unicode="&#x10f6b5;" horiz-adv-x="640" 
d="M411.83 272.7l-91.8301 -55.1006l-91.8301 55.1006l27.8301 111.3l42.6602 -32h42.6699l42.6699 32z" />
    <glyph glyph-name="blender-phone-secondary" unicode="&#x10f6b6;" horiz-adv-x="576" 
d="M497.46 160l-17.46 -64h-288v352h384l-17.4502 -64h-166.55c-4.41504 0 -8 -3.58496 -8 -8v-16c0 -4.41504 3.58496 -8 8 -8h157.82l-17.4502 -64h-140.37c-4.41504 0 -8 -3.58496 -8 -8v-16c0 -4.41504 3.58496 -8 8 -8h131.64l-17.4492 -64h-114.19
c-4.41504 0 -8 -3.58496 -8 -8v-16c0 -4.41504 3.58496 -8 8 -8h105.46z" />
    <glyph glyph-name="book-dead-secondary" unicode="&#x10f6b7;" horiz-adv-x="448" 
d="M96 0c-19.2002 0 -32 12.7998 -32 32s16 32 32 32h319.33c-1.92969 -16.2402 -1.75977 -48.3799 0.530273 -64h-319.86z" />
    <glyph glyph-name="book-spells-secondary" unicode="&#x10f6b8;" horiz-adv-x="448" 
d="M96 0c-19.2002 0 -32 12.7998 -32 32s16 32 32 32h319.33c-1.92969 -16.2402 -1.75977 -48.3799 0.530273 -64h-319.86z" />
    <glyph glyph-name="bow-arrow-secondary" unicode="&#x10f6b9;" 
d="M282.33 297.53c-26.8779 14.2676 -57.9297 22.3506 -90.4551 22.3506c-33.0752 0 -64.2139 -8.36035 -91.415 -23.0811l90.54 -90.5801l-45.2197 -45.2197l-141.09 141.06c-2.89746 2.89648 -4.69043 6.90137 -4.69043 11.3174s1.79297 8.41699 4.69043 11.3135
l22.6191 22.6191c2.89648 2.89746 6.90137 4.69043 11.3174 4.69043s8.41699 -1.79297 11.3135 -4.69043l3.89941 -3.89941c39.7715 25.585 87.627 40.4307 138.389 40.4307c50.2764 0 97.1777 -14.5645 136.712 -39.7012zM407.41 -9.46973l4.58984 -4.58984
c2.89648 -2.89648 4.68945 -6.90137 4.68945 -11.3174s-1.79297 -8.41699 -4.68945 -11.3135l-22.6504 -22.6299c-2.89551 -2.89648 -6.90039 -4.68945 -11.3164 -4.68945s-8.41699 1.79297 -11.3135 4.68945l-141.72 141.761l45.2197 45.2598l90.5801 -90.5801
c14.7207 27.2031 23.083 58.7422 23.083 91.8193c0 32.5273 -8.08496 63.1816 -22.3525 90.0605l46.6094 46.6299c25.1367 -39.5342 39.7021 -86.9688 39.7021 -137.245c0 -50.7617 -14.8467 -98.083 -40.4316 -137.854z" />
    <glyph glyph-name="campfire-secondary" unicode="&#x10f6ba;" 
d="M320 416c46.5801 -42 80 -110.71 80 -144c0 -79.4756 -64.5244 -144 -144 -144s-144 64.5244 -144 144c0 44.7803 44.8301 119 108 176c23.6123 -21.1729 44.7207 -44.1318 63.8604 -69.4805c11.252 13.4082 23.1562 25.7529 36.1396 37.4805zM303.21 207.43
c30.0996 22 37.1504 64.6602 20.4404 97.9902c-2.06055 4.11035 -4.36035 8.38965 -6.89062 12.7598l-35.8398 -42.7197s-56.1895 74.9697 -60.4199 80.0596c-29.6396 -37.1299 -44.5 -58.8594 -44.5 -83.5195c0 -49.5098 35.8896 -80 80 -80
c0.0263672 0 0.121094 0.0400391 0.147461 0.0400391c17.5977 0 33.8711 5.71582 47.0625 15.3896z" />
    <glyph glyph-name="campground-secondary" unicode="&#x10f6bb;" horiz-adv-x="640" 
d="M640 -16v-32c0 -8.83105 -7.16895 -16 -16 -16h-608c-8.83105 0 -16 7.16895 -16 16v32c0 8.83105 7.16895 16 16 16h608c8.83105 0 16 -7.16895 16 -16z" />
    <glyph glyph-name="candle-holder-secondary" unicode="&#x10f6bc;" horiz-adv-x="448" 
d="M160 256c-45.9297 0 -78 32.6104 -78 79.29c0 29.8701 32.3799 74.71 78 112.71c45.4102 -37.8203 78 -82.71 78 -112.71c0 -46.6797 -32.0703 -79.29 -78 -79.29zM376 80c39.7383 0 72 -32.2617 72 -72s-32.2617 -72 -72 -72h-360c-8.83105 0 -16 7.16895 -16 16v16
c0 8.83105 7.16895 16 16 16h292.42c-2.76758 7.47656 -4.33887 15.585 -4.41992 24c0.0439453 39.7178 32.2822 71.9561 72 72zM376 -16c13.2461 0 24 10.7539 24 24s-10.7539 24 -24 24s-24 -10.7539 -24 -24s10.7539 -24 24 -24z" />
    <glyph glyph-name="cauldron-secondary" unicode="&#x10f6bf;" horiz-adv-x="448" 
d="M160 448c17.6611 0 32 -14.3389 32 -32s-14.3389 -32 -32 -32s-32 14.3389 -32 32s14.3389 32 32 32zM272 416c26.4922 0 48 -21.5078 48 -48s-21.5078 -48 -48 -48s-48 21.5078 -48 48s21.5078 48 48 48zM96 160v128h64v-128c0 -17.6611 -14.3389 -32 -32 -32
s-32 14.3389 -32 32z" />
    <glyph glyph-name="claw-marks-secondary" unicode="&#x10f6c2;" 
d="M7 223.49c56.3604 -26.75 199.4 -108.601 280.51 -280.53c2.32031 -4.92969 -4.13965 -9.34961 -8 -5.49023l-117.14 117.16c-5.79199 5.79102 -13.8008 9.37012 -22.6299 9.37012h-43.7402v43.7305c0 8.8291 -3.5791 16.8369 -9.37012 22.6299l-85.1201 85.1299
c-3.91016 3.91016 0.490234 10.3701 5.49023 8zM511.51 167c2.33008 -5 -4.12988 -9.38965 -7.99023 -5.53027l-53.1592 53.1602c-5.79297 5.79102 -13.8008 9.37012 -22.6299 9.37012h-43.7305v43.7402c0 8.8291 -3.5791 16.8379 -9.37012 22.6299l-52.2598 52.2598
c-5.79199 5.79102 -13.8008 9.37012 -22.6299 9.37012h-43.7402v43.7402c0 0.00488281 0.00390625 0.0146484 0.00390625 0.0195312c0 8.82422 -3.5791 16.8193 -9.36426 22.6104l-21.1299 21.1201c-3.91016 3.91016 0.490234 10.3701 5.49023 8
c56.3604 -26.75 199.4 -108.601 280.51 -280.49z" />
    <glyph glyph-name="coffee-togo-secondary" unicode="&#x10f6c5;" horiz-adv-x="448" 
d="M48 288h352l-8 -96h-336zM378.67 32l10.9805 131.76l-16.54 -198.42c-1.36914 -16.4043 -15.1348 -29.3398 -31.8906 -29.3398h-234.439c-16.7559 0 -30.5215 12.9355 -31.8906 29.3398l-16.5596 198.42l11 -131.76h309.34z" />
    <glyph glyph-name="corn-secondary" unicode="&#x10f6c7;" 
d="M206.68 336.92c7.1416 9.5127 18.5137 15.6719 31.3125 15.6719c4.97266 0 9.73047 -0.977539 14.1074 -2.67188c1.74219 20.5908 19.0283 36.7822 40.0664 36.7822c6.14355 0 12.0039 -1.36426 17.2139 -3.83203c3.2334 18.7627 19.6006 33.0547 39.2803 33.0547
c8.04688 0 15.582 -2.37695 21.8496 -6.48438c3.97363 12.9893 14.376 23.1787 27.4902 26.8594c3.49805 1.02734 7.19922 1.5791 11.0283 1.5791c10.6553 0 20.3232 -4.25977 27.3818 -11.1787c6.74707 12.6797 20.0977 21.3213 35.4521 21.3213
c22.1484 0 40.1299 -17.9814 40.1299 -40.1299c0 -0.663086 -0.0400391 -1.33594 -0.0722656 -1.99121v-3.2002c-0.584961 -15.083 -9.39355 -28.0605 -22.0996 -34.5303c6.56738 -7.17578 10.5771 -16.7305 10.5771 -27.2148
c0 -3.88086 -0.552734 -7.64258 -1.57715 -11.1953c-4.02246 -12.9512 -14.2461 -23.1719 -27.2002 -27.1895c4.01855 -6.18457 6.35449 -13.5615 6.35449 -21.4795c0 -5.77832 -1.24023 -11.3418 -3.47461 -16.291c-5.45312 -12.0117 -16.6602 -20.8428 -30.0801 -23.0498
c2.56641 -5.19727 4.00879 -11.0469 4.00879 -17.2314c0 -7.3623 -2.04688 -14.3311 -5.59863 -20.209c-6.42676 -11.1709 -18.1299 -18.8926 -31.6904 -19.8496c1.65137 -4.3291 2.55566 -9.02539 2.55566 -13.9316c0 -8.50977 -2.72656 -16.4434 -7.3457 -22.8682
c-1.46973 -1.92773 -3.0791 -3.68164 -4.86914 -5.31055c-51.2305 28.5 -110.091 37.4902 -166.48 28.1309c2.34473 13.9277 3.56543 28.2354 3.56543 42.8262c0 44.792 -11.6719 86.9502 -31.8857 123.613z" />
    <glyph glyph-name="cow-secondary" unicode="&#x10f6c8;" horiz-adv-x="640" 
d="M97.3701 333.22c-14.8486 -5.85254 -25.3496 -20.3076 -25.3701 -37.2197v-104c0 -35.3223 -28.6777 -64 -64 -64h-8v32c0.0576172 20.083 9.39648 37.9678 24 49.5898v86.4102c0.0546875 48.543 39.457 87.9453 88 88h48
c-30.7754 0 -56.5146 -21.8135 -62.6299 -50.7803zM333.73 146.89c11.3945 -13.7852 18.2695 -31.5107 18.2695 -50.7764v-0.113281c-9.23438 -9.08496 -20.0127 -16.4707 -32 -21.8203v-26.1797c0 -0.00292969 0.0117188 -0.00585938 0.0117188 -0.00878906
c0 -8.83105 -7.16992 -16 -16 -16c-0.262695 0 -0.522461 0.00585938 -0.78125 0.0185547c-8.60059 0.430664 -15.2305 7.81055 -15.2305 16.4307v16.8691c-19.1904 -2.35938 -22.9004 -1.11914 -32 0v-17.3096c-0.000976562 -8.83008 -7.1582 -15.999 -15.9883 -15.999
c-0.262695 0 -0.522461 0.00683594 -0.78125 0.0185547c-8.60059 0.430664 -15.2305 7.81055 -15.2305 16.4307v25.6797c-11.9902 5.36523 -22.7676 12.7686 -32 21.8701c0 1.37988 0.0400391 2.75 0.0996094 4.11035c1.79004 35.1592 30.6104 75.8896 79.9004 75.8896
c0.0283203 0 0.0292969 0.0517578 0.0576172 0.0517578c24.8291 0 47.0264 -11.3604 61.6729 -29.1621z" />
    <glyph glyph-name="dagger-secondary" unicode="&#x10f6cb;" horiz-adv-x="384" 
d="M128 19.1602v204.84h128v-204.84l-50.6797 -76c-2.86914 -4.30566 -7.76758 -7.14453 -13.3252 -7.14453c-5.55664 0 -10.4365 2.83887 -13.3047 7.14453z" />
    <glyph glyph-name="dice-d10-secondary" unicode="&#x10f6cd;" 
d="M509 207.14c5.21973 -6.38965 -0.209961 -16.1396 -8.09961 -14.4297l-130.381 27.29l-67.7891 212.45c-2.93066 9.20996 8.45996 15.9199 14.46 8.5498zM194.8 441c6.0498 7.38965 17.4004 0.669922 14.4502 -8.5l-67.7803 -212.5l-130.39 -27.2803
c-7.87988 -1.66016 -13.3203 8.03027 -8.08008 14.4199zM248 442c1.04102 3.43164 4.22852 5.93262 7.99805 5.93262c3.77051 0 6.96094 -2.50098 8.00195 -5.93262l73.4297 -230.15l-81.4297 -56.71l-81.4004 56.7402z" />
    <glyph glyph-name="dice-d12-secondary" unicode="&#x10f6ce;" 
d="M7.54004 271.08l51.46 102.85l181 -65.1699v-106.87l-108.84 -54.4297zM453 373.93l51.46 -102.84l-123.62 -123.62l-108.84 54.4199v106.87zM333.51 441.24l88.7705 -44.3799l-166.28 -59.8604l-166.28 59.8604l88.7607 44.3799
c8.59277 4.30078 18.3496 6.75977 28.6064 6.75977h0.0126953h97.79c0.0078125 0 0.0771484 -0.0371094 0.0849609 -0.0371094c10.2529 0 19.9453 -2.42188 28.5352 -6.72266z" />
    <glyph glyph-name="dice-d20-secondary" unicode="&#x10f6cf;" horiz-adv-x="480" 
d="M240 448c0.0224609 0 0.0341797 0.0175781 0.0576172 0.0175781c5.74609 0 10.7842 -3.05957 13.5723 -7.6377l95.5801 -168.38h-218.42l95.5801 168.38c2.78809 4.57812 7.81445 7.62012 13.5615 7.62012h0.0683594zM168.62 436.26
c7.18945 4.11035 15.1201 -4.08008 10.7803 -11.1396l-79.9307 -142.94l-81.5293 48.6904c-1.16699 0.699219 -1.94727 1.9707 -1.94727 3.42773c0 1.40332 0.722656 2.6377 1.81641 3.35254zM462.19 337.66c1.09375 -0.713867 1.81738 -1.94434 1.81738 -3.34668
c0 -1.45801 -0.78125 -2.73438 -1.94824 -3.43359l-81.5293 -48.7002l-79.9307 142.94c-4.33984 7.05957 3.59082 15.25 10.7803 11.1396z" />
    <glyph glyph-name="dice-d4-secondary" unicode="&#x10f6d0;" 
d="M239.81 439.47v-494.939c0 -7.15039 -7.86914 -11.1104 -13.1699 -6.64062l-223.64 188.811c-1.85547 1.61719 -3.0293 3.99805 -3.0293 6.65039c0 1.92773 0.628906 3.71777 1.67969 5.16895l223.63 306.141c4.71973 6.43945 14.5195 2.93945 14.5293 -5.19043z" />
    <glyph glyph-name="dice-d6-secondary" unicode="&#x10f6d1;" horiz-adv-x="448" 
d="M25.8701 323.58c-2.40332 1.51172 -4.00195 4.1875 -4.00195 7.23438c0 3.02148 1.57129 5.66699 3.94141 7.18555l166 100.88c9.36621 5.73145 20.375 9.03516 32.1494 9.03516s22.915 -3.30371 32.2812 -9.03516l165.95 -100.88
c2.39453 -1.51367 3.98633 -4.18457 3.98633 -7.22461c0 -3.06152 -1.61426 -5.7373 -4.03711 -7.24512l-198.14 -118.08z" />
    <glyph glyph-name="dice-d8-secondary" unicode="&#x10f6d2;" 
d="M225.53 445.48c1.48828 1.53027 3.56934 2.48242 5.87109 2.48242c4.52051 0 8.19043 -3.66992 8.19043 -8.18945c0 -0.0546875 -0.000976562 -0.109375 -0.00195312 -0.163086v-324.271l-234.13 85.0605c-3.19531 1.20508 -5.4668 4.29199 -5.4668 7.90723
c0 2.27539 0.901367 4.34277 2.36719 5.8623zM509.64 214.17c1.46484 -1.52148 2.37012 -3.58789 2.37012 -5.86426c0 -3.61719 -2.27441 -6.70605 -5.46973 -7.91602l-234.13 -85.0596v324.27c-0.000976562 0.0576172 -0.000976562 0.114258 -0.000976562 0.172852
c0 4.51953 3.66895 8.18945 8.18945 8.18945c2.30176 0 4.38281 -0.951172 5.87109 -2.48145z" />
    <glyph glyph-name="dragon-secondary" unicode="&#x10f6d5;" horiz-adv-x="640" 
d="M320 253.65v-42.2705c0.0830078 -29.2236 5.32617 -57.3633 14.7305 -83.3799h-222.73c-14.25 0 -21.3896 17.2305 -11.3096 27.3096l91.3096 68.6904l-173.68 -31.8203c-15.96 -2.2793 -24.8906 17.8203 -12.5107 28.1406l117.4 116.34
c11.1816 9.5498 25.6875 15.3184 41.5303 15.3184c13.0977 0 25.3828 -3.96582 35.5293 -10.7285z" />
    <glyph glyph-name="duck-secondary" unicode="&#x10f6d8;" 
d="M512 320c0 -52.9834 -43.0166 -96 -96 -96h-27c37.2803 13.1797 59 54.2002 59 96h64z" />
    <glyph glyph-name="dungeon-secondary" unicode="&#x10f6d9;" 
d="M304 258.64c12.8799 -7.38184 23.7354 -17.4951 32 -29.7695v-252.87c0 -4.41504 -3.58496 -8 -8 -8h-16c-4.41504 0 -8 3.58496 -8 8v282.64zM240 270.38c5.21387 0.980469 10.5244 1.53223 16 1.62012c5.47559 -0.0878906 10.7861 -0.639648 16 -1.62012v-294.38
c0 -4.41504 -3.58496 -8 -8 -8h-16c-4.41504 0 -8 3.58496 -8 8v294.38zM176 228.87c8.26465 12.2744 19.1201 22.3877 32 29.7695v-282.64c0 -4.41504 -3.58496 -8 -8 -8h-16c-4.41504 0 -8 3.58496 -8 8v252.87z" />
    <glyph glyph-name="eye-evil-secondary" unicode="&#x10f6db;" horiz-adv-x="640" 
d="M344.35 225.75c4.79785 -10.2383 7.55859 -21.7256 7.65039 -33.75c-0.490234 -42.6602 -32 -64 -32 -64s-31.4805 21.3398 -32 64c0.0917969 12.0225 2.84863 23.5098 7.63965 33.75c8.00488 -1.15723 16.1885 -1.75586 24.5117 -1.75586
s16.1641 0.598633 24.1689 1.75586h0.0292969z" />
    <glyph glyph-name="fist-raised-secondary" unicode="&#x10f6de;" horiz-adv-x="384" 
d="M64 -64v64l-26.5 26.5098c-23.1689 23.1641 -37.4922 55.1748 -37.5 90.4902v77.9502c4.9834 -1.84961 10.3896 -2.89746 16 -2.9502h32c12.3174 0.0419922 23.5605 4.77051 32 12.4902c8.43945 -7.71973 19.6826 -12.4482 32 -12.4902h32
c7.87402 0.0546875 15.3506 2.06348 21.8701 5.51953c7.48926 -16.3242 21.5732 -28.915 38.8701 -34.4492c-17.1104 -14.8203 -31.5801 -34.4805 -47.3105 -58.0801l-6.30957 -9.4707c-0.841797 -1.26562 -1.33203 -2.78516 -1.33203 -4.41895
c0 -2.77539 1.40332 -5.22559 3.55176 -6.66016l13.3105 -8.88086c1.2666 -0.84082 2.78613 -1.33203 4.41895 -1.33203c2.77539 0 5.22559 1.4043 6.66113 3.55273l6.30957 9.46973c31.8896 47.8398 51.5303 70.2695 96.0498 72.5498
c4.30664 0.176758 7.76758 3.67773 7.87988 8v16.2002c0 4.41992 -3.51953 8 -13.2002 8h-35.25c-26.2324 0.0390625 -47.5195 21.3486 -47.5195 47.5898v0.560547c0.00585938 8.74512 7.10449 15.8438 15.8496 15.8496h112.15c35.3223 0 64 -28.6777 64 -64v-88.2197
v-0.0263672c0 -26.4932 -10.7412 -50.5068 -28.1201 -67.8838l-35.8799 -35.8701v-64h-256z" />
    <glyph glyph-name="ghost-secondary" unicode="&#x10f6e2;" horiz-adv-x="384" 
d="M186.1 447.91c108.73 3.25977 197.9 -83.9102 197.9 -191.91v-272c0 -14.2197 -17.2305 -21.3604 -27.3096 -11.3203l-24.9209 18.5303c-2.66309 1.98145 -5.97461 3.16992 -9.54688 3.16992c-4.75586 0 -9.03125 -2.08008 -11.9629 -5.37988l-42.9902 -48.3096
c-2.89551 -2.89746 -6.90039 -4.69043 -11.3164 -4.69043s-8.41699 1.79297 -11.3135 4.69043l-40.7197 45.8496c-2.93164 3.29883 -7.20117 5.37891 -11.957 5.37891c-4.75684 0 -9.03125 -2.08008 -11.9629 -5.37891l-40.6299 -45.8896
c-2.89648 -2.89746 -6.90137 -4.69043 -11.3174 -4.69043s-8.41602 1.79297 -11.3125 4.69043l-43 48.3496c-2.93262 3.30273 -7.2207 5.37012 -11.9795 5.37012c-3.56934 0 -6.86816 -1.1709 -9.53027 -3.15039l-24.9209 -18.5293
c-2.89551 -2.89453 -6.89648 -4.68262 -11.3096 -4.68262c-8.82812 0 -15.9961 7.16504 -16 15.9922v263.95c0 105.13 81 196.81 186.1 199.96zM128 224c17.6611 0 32 14.3389 32 32s-14.3389 32 -32 32s-32 -14.3389 -32 -32s14.3389 -32 32 -32zM256 224
c17.6611 0 32 14.3389 32 32s-14.3389 32 -32 32s-32 -14.3389 -32 -32s14.3389 -32 32 -32z" />
    <glyph glyph-name="hammer-secondary" unicode="&#x10f6e3;" horiz-adv-x="576" 
d="M19.6396 43l255.101 238.17c2.97852 -4.28809 6.23535 -8.25293 9.84961 -12l49.1406 -49.1396c3.58398 -3.43848 7.36328 -6.54883 11.4395 -9.41016l-238.17 -254.98c-11.3135 -12.4209 -27.6152 -20.2207 -45.7236 -20.2207
c-34.1299 0 -61.8398 27.709 -61.8398 61.8398c0 18.1084 7.78223 34.4277 20.2031 45.7412z" />
    <glyph glyph-name="hand-holding-magic-secondary" unicode="&#x10f6e5;" horiz-adv-x="576" 
d="M564 71l-151.25 -121c-10.9453 -8.74512 -24.8184 -13.9756 -39.9043 -13.9756c-0.0175781 0 -0.0791016 -0.0244141 -0.0957031 -0.0244141h-356.75c-8.83105 0 -16 7.16895 -16 16v96c0 8.83105 7.16895 16 16 16h55.4404l46.5 37.7305
c20.2041 16.3975 46.0361 26.2695 74.0596 26.2695h160h0.0136719c17.6621 0 32 -14.3389 32 -32c0 -1.83984 -0.155273 -3.61426 -0.454102 -5.37012c-2.55957 -15.7402 -17.3398 -26.6299 -33.2793 -26.6299h-78.2803c-8.83105 0 -16 -7.16895 -16 -16s7.16895 -16 16 -16
h118.33h0.0507812c15.0859 0 29.0039 5.25488 39.9492 14l92.3398 73.8701c12.4502 10 30.7998 10.6895 42.6299 0c6.57617 -5.8623 10.7197 -14.3965 10.7197 -23.8906c0 -10.1094 -4.68945 -19.1133 -12.0195 -24.9795z" />
    <glyph glyph-name="hanukiah-secondary" unicode="&#x10f6e6;" horiz-adv-x="640" 
d="M152 346.67c0 14.7197 24 53.3301 24 53.3301s24 -38.5996 24 -53.3301c0 -14.7295 -10.75 -26.6699 -24 -26.6699s-24 11.9502 -24 26.6699zM216 346.67c0 14.7197 24 53.3301 24 53.3301s24 -38.5996 24 -53.3301c0 -14.7295 -10.75 -26.6699 -24 -26.6699
s-24 11.9502 -24 26.6699zM8 346.67c0 14.7197 24 53.3301 24 53.3301s24 -38.5996 24 -53.3301c0 -14.7295 -10.75 -26.6699 -24 -26.6699s-24 11.9502 -24 26.6699zM88 346.67c0 14.7197 24 53.3301 24 53.3301s24 -38.5996 24 -53.3301
c0 -14.7295 -10.75 -26.6699 -24 -26.6699s-24 11.9502 -24 26.6699zM296 394.67c0 14.7197 24 53.3301 24 53.3301s24 -38.5996 24 -53.3301c0 -14.7295 -10.75 -26.6699 -24 -26.6699s-24 11.9502 -24 26.6699zM504 346.67c0 14.7197 24 53.3301 24 53.3301
s24 -38.5996 24 -53.3301c0 -14.7295 -10.75 -26.6699 -24 -26.6699s-24 11.9502 -24 26.6699zM608 400c0 0 24 -38.5996 24 -53.3301c0 -14.7295 -10.75 -26.6699 -24 -26.6699s-24 11.9502 -24 26.6699s24 53.3301 24 53.3301zM376 346.67
c0 14.7197 24 53.3301 24 53.3301s24 -38.5996 24 -53.3301c0 -14.7295 -10.75 -26.6699 -24 -26.6699s-24 11.9502 -24 26.6699zM440 346.67c0 14.7197 24 53.3301 24 53.3301s24 -38.5996 24 -53.3301c0 -14.7295 -10.75 -26.6699 -24 -26.6699s-24 11.9502 -24 26.6699z
" />
    <glyph glyph-name="hat-witch-secondary" unicode="&#x10f6e7;" horiz-adv-x="576" 
d="M571.21 21.1904c6.44043 -6.44043 6.44043 -17.25 -0.400391 -23.25c-43.7969 -38.5225 -101.342 -61.9414 -164.197 -61.9414c-0.244141 0 -0.488281 0 -0.732422 0.000976562h-235.78c-0.243164 -0.000976562 -0.591797 0.0439453 -0.834961 0.0439453
c-62.8525 0 -120.29 23.374 -164.085 61.8965c-6.84961 6 -6.83984 16.8096 -0.399414 23.25l22.6396 22.6592c6 6.04004 15.5 5.95996 22 0.430664c32.333 -27.5791 74.3516 -44.2812 120.138 -44.2812c0.180664 0 0.361328 0 0.541992 0.000976562h235.78
c0.178711 -0.000976562 0.451172 0.0449219 0.629883 0.0449219c45.7812 0 87.7031 16.6562 120.03 44.2354c6.50977 5.56934 16 5.56934 22 -0.430664zM320 96v-64h-64v64h64z" />
    <glyph glyph-name="head-side-secondary" unicode="&#x10f6e9;" 
d="M509.21 173c1.76367 -3.9668 2.75879 -8.38281 2.75879 -13c0 -17.6514 -14.3213 -31.9834 -31.9688 -32h-32v-64c0 -35.3223 -28.6777 -64 -64 -64h-64v-64h-256v177.18c-39.3125 35.0439 -64 86.0303 -64 142.785v0.0351562c0 106 86 192 192 192h74.0898
c70.3037 -0.0107422 132.39 -34.7783 170.04 -88.25c24.6396 -35.0195 52.1396 -139.63 73.0801 -186.75zM320 224c17.6611 0 32 14.3389 32 32s-14.3389 32 -32 32s-32 -14.3389 -32 -32s14.3389 -32 32 -32z" />
    <glyph glyph-name="head-vr-secondary" unicode="&#x10f6ea;" 
d="M509.2 173c1.76367 -3.9668 2.75879 -8.38281 2.75879 -13c0 -17.6475 -14.3164 -31.9775 -31.959 -32h-32v-64c0 -35.3223 -28.6777 -64 -64 -64h-64v-64h-224v177.18c-31.5879 28.3418 -53.6475 67.1611 -61 110.82h192.64
c21.208 -19.7793 49.6807 -31.9199 80.9199 -32h192.95c2.64062 -7 5.2207 -13.4404 7.69043 -19zM220.94 379.13c-14.5547 -16.1143 -24.5205 -36.625 -27.7803 -59.1299h-150c26.3799 74.5195 97.2803 128 180.84 128h42.0898
c40.4092 -0.0888672 78.3467 -11.8916 110.21 -32h-72.2998c-32.9268 -0.0283203 -62.543 -14.2246 -83.0596 -36.8701z" />
    <glyph glyph-name="helmet-battle-secondary" unicode="&#x10f6eb;" horiz-adv-x="576" 
d="M32 192c-20.7998 0 -36.0801 17.1602 -31 34.8701l63 221.13v-227.94c0 -15.5 -14.3301 -28.0596 -32 -28.0596zM575 226.87c5.08008 -17.71 -10.2002 -34.8701 -31 -34.8701c-17.6797 0 -32 12.5596 -32 28.0596v227.94z" />
    <glyph glyph-name="hiking-secondary" unicode="&#x10f6ec;" horiz-adv-x="384" 
d="M368 288c8.83105 0 16 -7.16895 16 -16v-320c0 -8.83105 -7.16895 -16 -16 -16h-16c-8.83105 0 -16 7.16895 -16 16v320c0 8.83105 7.16895 16 16 16h16zM240 448c26.4922 0 48 -21.5078 48 -48s-21.5078 -48 -48 -48s-48 21.5078 -48 48s21.5078 48 48 48z
M125.08 350.06c8.78027 -2.10938 14.1104 -10.6396 11.9199 -19.0596l-41.1299 -159.11c-2.19043 -8.43945 -11.0801 -13.54 -19.8701 -11.4395l-63.5898 15.25c-8.78027 2.10938 -14.1104 10.6396 -11.9199 19.0596l25.2695 98.1299
c10.9707 42.1104 55.4404 67.6904 99.3203 57.1699z" />
    <glyph glyph-name="hockey-mask-secondary" unicode="&#x10f6ee;" horiz-adv-x="448" 
d="M376.61 393.54c64.0293 -56.04 102.39 -169.98 38.7598 -361.54c-31.9004 -96 -191.37 -96 -191.37 -96s-159.47 0 -191.37 96c-63.6396 191.54 -25.2402 305.54 38.7598 361.54c82.96 72.6104 222.271 72.6104 305.221 0zM288 384c-8.83105 0 -16 -7.16895 -16 -16
s7.16895 -16 16 -16s16 7.16895 16 16s-7.16895 16 -16 16zM160 384c-8.83105 0 -16 -7.16895 -16 -16s7.16895 -16 16 -16s16 7.16895 16 16s-7.16895 16 -16 16zM176 -16c8.83105 0 16 7.16895 16 16s-7.16895 16 -16 16s-16 -7.16895 -16 -16s7.16895 -16 16 -16zM176 48
c8.83105 0 16 7.16895 16 16s-7.16895 16 -16 16s-16 -7.16895 -16 -16s7.16895 -16 16 -16zM176 112c8.83105 0 16 7.16895 16 16s-7.16895 16 -16 16s-16 -7.16895 -16 -16s7.16895 -16 16 -16zM128 176c35.3223 0 64 28.6777 64 64c0 17.6611 -14.3389 32 -32 32h-64
c-17.6611 0 -32 -14.3389 -32 -32c0 -35.3223 28.6777 -64 64 -64zM224 304c8.83105 0 16 7.16895 16 16s-7.16895 16 -16 16s-16 -7.16895 -16 -16s7.16895 -16 16 -16zM272 -16c8.83105 0 16 7.16895 16 16s-7.16895 16 -16 16s-16 -7.16895 -16 -16s7.16895 -16 16 -16z
M272 48c8.83105 0 16 7.16895 16 16s-7.16895 16 -16 16s-16 -7.16895 -16 -16s7.16895 -16 16 -16zM272 112c8.83105 0 16 7.16895 16 16s-7.16895 16 -16 16s-16 -7.16895 -16 -16s7.16895 -16 16 -16zM320 176c35.3223 0 64 28.6777 64 64c0 17.6611 -14.3389 32 -32 32
h-64c-17.6611 0 -32 -14.3389 -32 -32c0 -35.3223 28.6777 -64 64 -64z" />
    <glyph glyph-name="house-damage-secondary" unicode="&#x10f6f1;" horiz-adv-x="576" 
d="M512 136.92v-184.92c0 -8.83105 -7.16895 -16 -16 -16h-176.18l-39.9199 55.2598l104.109 64l-148.01 136.74l60.1104 -119.2l-104.11 -63.9795l37.2402 -72.8203h-149.24c-8.83105 0 -16 7.16895 -16 16v185c1.78027 1.20996 3.84961 1.88965 5.46973 3.34961
l218.53 192.65l218.74 -192.9c1.5498 -1.35938 3.56934 -2.01953 5.25977 -3.17969z" />
    <glyph glyph-name="hryvnia-secondary" unicode="&#x10f6f2;" horiz-adv-x="384" 
d="M0 224v32c0 8.83105 7.16895 16 16 16h205.38l-65.3799 -64h-140c-8.83105 0 -16 7.16895 -16 16zM77.9102 131.62c-5.9668 -5.8457 -11.0859 -12.3789 -15.3506 -19.6201h-46.5596c-8.83105 0 -16 7.16895 -16 16v32c0 8.83105 7.16895 16 16 16h107.27zM368 176
c8.83105 0 16 -7.16895 16 -16v-32c0 -8.83105 -7.16895 -16 -16 -16h-205.4l65.4004 64h140zM368 272c8.83105 0 16 -7.16895 16 -16v-32c0 -8.83105 -7.16895 -16 -16 -16h-107.26l45.3594 44.3896c5.96289 5.84277 11.0791 12.373 15.3408 19.6104h46.5596z" />
    </font>
</defs>
</svg>
