<?xml version="1.0" standalone="no"?>
<!DOCTYPE svg PUBLIC "-//W3C//DTD SVG 1.1//EN" "http://www.w3.org/Graphics/SVG/1.1/DTD/svg11.dtd" >
<svg xmlns="http://www.w3.org/2000/svg" xmlns:xlink="http://www.w3.org/1999/xlink" version="1.1">
<metadata>
Created by FontForge 20200314 at Wed Jan 13 11:59:48 2021
 By Robert Madole
Copyright (c) Font Awesome
</metadata>
<!-- Font Awesome Pro 5.15.2 by @fontawesome - https://fontawesome.com License - https://fontawesome.com/license (Commercial License) --><defs>
<font id="FontAwesome5Duotone-Solid" horiz-adv-x="512" >
  <font-face 
    font-family="Font Awesome 5 Duotone Solid"
    font-weight="900"
    font-stretch="normal"
    units-per-em="512"
    panose-1="2 0 5 3 0 0 0 0 0 0"
    ascent="448"
    descent="-64"
    bbox="-0.991211 -64.3271 640.093 449"
    underline-thickness="25"
    underline-position="-50"
    unicode-range="U+0020-10F8FF"
  />
    <missing-glyph />
    <glyph glyph-name="gift-primary" unicode="&#xf06b;" 
d="M224 -32v160h64v-160h-64zM359.54 416c48.75 0 88.46 -39.5 88.46 -88c-0.121094 -14.4023 -3.80859 -28.0762 -10.1396 -40h-78.3105c22.0771 0 40 17.9238 40 40s-17.9229 40 -40 40c-20.5498 0 -34.8799 -3.5 -86.5498 -80h15v-128h-64v128h14.9102
c-51.7705 76.7002 -66.5498 80 -86.5498 80c-22.0771 0 -40 -17.9238 -40 -40s17.9229 -40 40 -40h-78.21c-6.37695 11.9023 -10.0752 25.5811 -10.1504 40c0 48.5 39.71 88 88.46 88c41.8203 0 68.8604 -21.2998 103.54 -68.2998
c34.6797 47 61.7197 68.2998 103.54 68.2998z" />
    <glyph glyph-name="signature-primary" unicode="&#xf5b7;" horiz-adv-x="640" 
 />
    <glyph glyph-name="baby-carriage-primary" unicode="&#xf77d;" 
d="M496 352c8.83105 0 16 -7.16895 16 -16v-32c0 -8.83105 -7.16895 -16 -16 -16h-48v-64c0 -0.0771484 0.0322266 -0.170898 0.0322266 -0.248047c0 -53.2109 -21.7568 -101.382 -56.8525 -136.092c-11.9395 5.32812 -25.21 8.36914 -39.1191 8.36914
c-41.7598 0 -77.333 -26.7021 -90.5605 -63.9492c-1.83008 -0.0800781 -3.66016 -0.0800781 -5.5 -0.0800781h-64c-1.83984 0 -3.66992 0.0302734 -5.5 0.0800781c-13.2275 37.2471 -48.8477 63.8701 -90.6074 63.8701c-13.9092 0 -27.1328 -2.96191 -39.0723 -8.29004
c-35.0957 34.71 -56.8203 82.8965 -56.8203 136.108v0.231445h384v64c0.0332031 35.3076 28.6924 63.9668 64 64h48z" />
    <glyph glyph-name="bells-primary" unicode="&#xf77f;" horiz-adv-x="640" 
d="M137.85 3.86035c-24.4238 8.94238 -41.8525 32.3232 -41.8525 59.8291c0 1.84668 0.0791016 3.67383 0.233398 5.48047l115.449 -42.1104c-11.5381 -16.375 -30.582 -26.999 -52.1182 -26.999c-7.62207 0 -14.9336 1.34082 -21.7119 3.7998zM625.55 149
c21.7998 -11.2598 17.4502 -41.4502 -3.09961 -49l-300.71 -109.69c-22.5098 -8.21973 -42.5205 14.7402 -33.7207 35.5c9.2002 21.7803 28.7109 56.6807 -0.5 137c-0.799805 2.2002 -14.8096 40.6104 -15.6094 42.7207c-25.1904 69.3701 10.4902 146.109 79.7295 171.37
c69.2402 25.2598 145.761 -10.5303 171.07 -79.9004c0.700195 -2.11035 14.5996 -40.5195 15.4004 -42.7197c29.1094 -80.2803 66.4395 -94.5498 87.4395 -105.28z" />
    <glyph glyph-name="blog-primary" unicode="&#xf781;" 
d="M172.2 221.18c75.5 -15 129.899 -89.2998 112.5 -172.199c-11.4004 -54.3008 -55.2998 -98.3008 -109.7 -109.7c-92.9004 -19.5 -175 51.2002 -175 140.72v248v0.0615234c0 13.2129 10.7275 23.9395 23.9395 23.9395
c0.0205078 0 0.0400391 -0.000976562 0.0605469 -0.000976562h48h0.0615234c13.2129 0 23.9395 -10.7275 23.9395 -23.9395c0 -0.0205078 -0.000976562 -0.0400391 -0.000976562 -0.0605469v-248c0 -26.4922 21.5078 -48 48 -48s48 21.5078 48 48
c0 20.6279 -13.0205 38.2168 -31.2998 45c-9.60059 3.59961 -16.7002 11.7998 -16.7002 22v50.4004c0 14.8994 13.5996 26.6992 28.2002 23.7998v-0.0205078z" />
    <glyph glyph-name="boot-primary" unicode="&#xf782;" 
d="M439.3 162.2c41.7227 -10.4639 72.7002 -48.2354 72.7002 -93.1836v-0.0166016v-37h-512v288h320v-32h-56c-4.41504 0 -8 -3.58496 -8 -8v-16c0 -4.41504 3.58496 -8 8 -8h56v-32h-56c-4.41504 0 -8 -3.58496 -8 -8v-16c0 -4.41504 3.58496 -8 8 -8h56z" />
    <glyph glyph-name="cash-register-primary" unicode="&#xf788;" 
d="M511.2 69.2002c0.535156 -3.02344 0.814453 -6.06641 0.814453 -9.24219c0 -0.420898 -0.00488281 -0.839844 -0.0146484 -1.25781v-90.7002c0 -17.6611 -14.3389 -32 -32 -32h-448c-17.6611 0 -32 14.3389 -32 32v90.7998
c0.00195312 3.59863 0.308594 7.06934 0.900391 10.5l26.6992 160c2.57715 15.123 15.752 26.6836 31.6006 26.7002h101.26l47.54 -0.0595703v0.0595703l244.9 -0.0996094c0.0136719 0 0.0283203 -0.0302734 0.0419922 -0.0302734
c15.8457 0 29.0166 -11.542 31.5576 -26.6699zM280.1 200v-16c0 -8.83105 7.16992 -16 16 -16h16c8.83105 0 16 7.16895 16 16v16c0 8.83105 -7.16895 16 -16 16h-16c-8.83008 0 -16 -7.16895 -16 -16zM248.1 136c-8.83008 0 -16 -7.16895 -16 -16v-16
c0 -8.83105 7.16992 -16 16 -16h16c8.83105 0 16 7.16895 16 16v16c0 8.83105 -7.16895 16 -16 16h-16zM184.1 200v-16c0 -8.83105 7.16992 -16 16 -16h16c8.83105 0 16 7.16895 16 16v16c0 8.83105 -7.16895 16 -16 16h-16c-8.83008 0 -16 -7.16895 -16 -16zM120.1 168
c8.83105 0 16 7.16895 16 16v16c0 8.83105 -7.16895 16 -16 16h-16c-8.83008 0 -16 -7.16895 -16 -16v-16c0 -8.83105 7.16992 -16 16 -16h16zM136.1 104c0 -8.83105 7.16992 -16 16 -16h16c8.83105 0 16 7.16895 16 16v16c0 8.83105 -7.16895 16 -16 16h-16
c-8.83008 0 -16 -7.16895 -16 -16v-16zM352.1 -8v16c0 4.41504 -3.58398 8 -8 8h-176c-4.41504 0 -8 -3.58496 -8 -8v-16c0 -4.41504 3.58496 -8 8 -8h176c4.41602 0 8 3.58496 8 8zM376.1 104v16c0 8.83105 -7.16895 16 -16 16h-16c-8.83008 0 -16 -7.16895 -16 -16v-16
c0 -8.83105 7.16992 -16 16 -16h16c8.83105 0 16 7.16895 16 16zM424.1 184v16c0 8.83105 -7.16895 16 -16 16h-16c-8.83008 0 -16 -7.16895 -16 -16v-16c0 -8.83105 7.16992 -16 16 -16h16c8.83105 0 16 7.16895 16 16z" />
    <glyph glyph-name="chart-network-primary" unicode="&#xf78a;" horiz-adv-x="640" 
d="M576 64c0.0458984 0 0.0859375 -0.0625 0.131836 -0.0625c35.251 0 63.8701 -28.6191 63.8701 -63.8701s-28.6191 -63.8701 -63.8701 -63.8701s-63.8701 28.6191 -63.8701 63.8701c0 3.30859 0.251953 6.55859 0.738281 9.73242l-95.7998 57.5
c-20.3877 -21.7422 -49.3623 -35.3057 -81.4902 -35.3057c-61.6543 0 -111.71 50.0557 -111.71 111.71v0.295898c0 36.2002 17.5 68.0996 44.2002 88.5l-41 87.7998c-1.10059 0 -2.10059 -0.299805 -3.2002 -0.299805
c-0.0566406 0 -0.114258 -0.0234375 -0.170898 -0.0234375c-35.2344 0 -63.8408 28.6064 -63.8408 63.8398c0 35.2344 28.6064 63.8408 63.8408 63.8408c35.2334 0 63.8398 -28.6064 63.8398 -63.8408c0 -16.6621 -6.39844 -31.8428 -16.8691 -43.2168l40.7998 -87.3994
c7.85645 1.85254 15.9922 2.8584 24.4004 2.89941c0.0205078 0 0.0400391 0.00195312 0.0595703 0.00195312c61.7822 0 111.94 -50.1592 111.94 -111.94v-0.0615234c-0.134766 -12.4141 -2.36621 -24.3936 -6.2998 -35.5l96 -57.5996
c10.6377 8.0791 23.9404 12.9297 38.2998 13zM336 96c26.4922 0 48 21.5078 48 48s-21.5078 48 -48 48s-48 -21.5078 -48 -48s21.5078 -48 48 -48z" />
    <glyph glyph-name="chimney-primary" unicode="&#xf78b;" 
d="M0 288v128c0 17.6611 14.3389 32 32 32h448c17.6611 0 32 -14.3389 32 -32v-128c0 -17.6611 -14.3389 -32 -32 -32h-448c-17.6611 0 -32 14.3389 -32 32z" />
    <glyph glyph-name="compress-arrows-alt-primary" unicode="&#xf78c;" 
d="M183 376.95c15.0498 15.0498 41 4.39941 41 -16.9502v-112c0 -0.0205078 0.000976562 -0.0400391 0.000976562 -0.0605469c0 -13.2119 -10.7266 -23.9395 -23.9395 -23.9395h-0.0615234h-112c-21.4004 0 -32.0996 25.7998 -17 40.9004l33 31.0996l-99.3496 99.3496
c-2.87402 2.90234 -4.65039 6.89941 -4.65039 11.3027s1.77637 8.39551 4.65039 11.2979l25.3994 25.3994c2.90234 2.87402 6.89941 4.65039 11.3027 4.65039s8.39551 -1.77637 11.2979 -4.65039l99.3496 -99.3496zM507.3 -11.3496
c2.90332 -2.90723 4.64941 -6.9248 4.64941 -11.3535c0 -4.40234 -1.77539 -8.39453 -4.64941 -11.2969l-25.3994 -25.4004c-2.90234 -2.87402 -6.89941 -4.64941 -11.3027 -4.64941s-8.39551 1.77539 -11.2979 4.64941l-99.2998 99.3008l-31 -32.9004
c-15.0996 -15.0996 -41 -4.40039 -41 17v112c0 0.0205078 -0.000976562 0.0400391 -0.000976562 0.0605469c0 13.2119 10.7266 23.9395 23.9395 23.9395h0.0615234h112c21.4004 0 32.0996 -25.7998 17 -40.9004l-33 -31.0996z" />
    <glyph glyph-name="deer-primary" unicode="&#xf78e;" 
d="M488.7 314.7c13.4131 -3.83398 23.2578 -16.1719 23.2998 -30.7998v-27.9004c0 -17.6611 -14.3389 -32 -32 -32h-64l-32 -64v-208c0 -8.83105 -7.16895 -16 -16 -16h-64c-8.83105 0 -16 7.16895 -16 16v144h-157.3l-19.4004 -51.7002l26.2998 -88.3994
c0.314453 -1.25098 0.482422 -2.55273 0.482422 -3.90039c0 -8.8252 -7.15918 -15.9902 -15.9824 -16h-63.7998c-7.47559 0.0078125 -13.7559 5.16113 -15.5 12.0996l-24.8994 82.5c-1.23438 4.96191 -1.87109 10.1514 -1.87109 15.4922
c0 7.91895 1.43945 15.5039 4.07031 22.5078l11.9004 31.8008v47.5996l-32 -20v64c0 35.3223 28.6777 64 64 64h240l35.3604 73c5.18945 10.6729 16.1143 18.002 28.7705 18.002c2.96777 0 5.8418 -0.404297 8.56934 -1.16211zM416 272c8.83105 0 16 7.16895 16 16
s-7.16895 16 -16 16s-16 -7.16895 -16 -16s7.16895 -16 16 -16z" />
    <glyph glyph-name="deer-rudolph-primary" unicode="&#xf78f;" 
d="M456.7 314.7c13.4131 -3.83398 23.2578 -16.1719 23.2998 -30.7998v-27.9004c0 -17.6611 -14.3389 -32 -32 -32h-64l-32 -64v-208c0 -8.83105 -7.16895 -16 -16 -16h-64c-8.83105 0 -16 7.16895 -16 16v144h-125.3l-19.4004 -51.7002l26.2998 -88.3994
c0.314453 -1.25098 0.482422 -2.55273 0.482422 -3.90039c0 -8.8252 -7.15918 -15.9902 -15.9824 -16h-63.7998c-7.47559 0.0078125 -13.7559 5.16113 -15.5 12.0996l-24.8994 82.5c-1.23438 4.96191 -1.87109 10.1514 -1.87109 15.4922
c0 7.91895 1.43945 15.5039 4.07031 22.5078l11.9004 31.8008v47.5996l-32 -20v64c0 35.3223 28.6777 64 64 64h208l35.3604 73c5.18945 10.6729 16.1143 18.002 28.7705 18.002c2.96777 0 5.8418 -0.404297 8.56934 -1.16211zM384 272c8.83105 0 16 7.16895 16 16
s-7.16895 16 -16 16s-16 -7.16895 -16 -16s7.16895 -16 16 -16z" />
    <glyph glyph-name="dreidel-primary" unicode="&#xf792;" horiz-adv-x="448" 
d="M78.5 282.95l236.4 -236.4l-58.9004 -58.8994c-12.0957 -12.1348 -28.832 -19.6416 -47.2998 -19.6504h-141.8h-0.0722656c-36.8838 0 -66.8301 29.9453 -66.8301 66.8301c0 0.0410156 0.00195312 0.0791016 0.00195312 0.120117v141.8v0.111328
c0 18.4131 7.49023 35.0938 19.5996 47.1387z" />
    <glyph glyph-name="dumpster-primary" unicode="&#xf793;" horiz-adv-x="576" 
d="M24.5 403.9c1.74414 6.93848 8.02441 12.0918 15.5 12.0996h98.9004l-25.6006 -128h-97.2998c-8.82227 0.00976562 -15.9814 7.16797 -15.9814 15.9932c0 1.34766 0.166992 2.65625 0.481445 3.90723zM145.9 288l25.5996 128h100.5v-128h-126.1zM304 416h100.5
l25.5996 -128h-126.1v128zM575.5 307.9c0.314453 -1.25098 0.482422 -2.55273 0.482422 -3.90039c0 -8.8252 -7.16016 -15.9902 -15.9824 -16h-97.2998l-25.6006 128h98.9004c7.47559 -0.0078125 13.7559 -5.16113 15.5 -12.0996z" />
    <glyph glyph-name="dumpster-fire-primary" unicode="&#xf794;" horiz-adv-x="640" 
d="M461.72 343.86l-11.9199 10.5898l-12.3096 61.4502h99c0.0146484 0 0.0263672 -0.0078125 0.0410156 -0.0078125c7.4502 0 13.7061 -5.15137 15.3984 -12.083l24 -95.9297c0.0253906 -0.383789 0.0380859 -0.740234 0.0380859 -1.12988
s-0.0126953 -0.776367 -0.0380859 -1.16016c-1 1 -2 2.19043 -3.09961 3.08984l-21.3203 19l-21.3193 -19c-5.91016 -5.18945 -11.6201 -10.6895 -17.3203 -16.2793c-16.125 18.29 -32.959 35.2256 -51.1504 51.46zM146 288l25.6396 127.9h100.601v-127.9h-126.24z
M24.5 403.81c1.76367 6.92578 8.03418 12.0654 15.5 12.0908h99l-25.5996 -127.9h-97.4004c-8.82031 0.0126953 -15.9766 7.16992 -15.9766 15.9932c0 1.33984 0.165039 2.64258 0.476562 3.88672zM551.2 284.81c51.7998 -46.2002 88.8994 -121.81 88.7998 -158.409
c0 -87.5 -71.5996 -158.4 -160 -158.4s-160 70.9004 -160 158.4c0 49.2998 49.7998 130.899 120 193.6c26.2383 -23.249 49.7051 -48.4941 71 -76.4004c12.5303 14.748 25.7715 28.3213 40.2002 41.21zM532.6 55.4004c33.4004 24.1992 41.2002 71.0996 22.6006 107.8
c-2.2998 4.5 -4.90039 9.2002 -7.7002 14l-39.7998 -47s-62.4004 82.5 -67.1006 88.0996c-32.8994 -40.8994 -49.3994 -64.7998 -49.3994 -91.8994c0 -54.5 39.8994 -88 88.8994 -88c0.0625 -0.000976562 0.201172 0.0449219 0.263672 0.0449219
c19.5098 0 37.5625 6.29199 52.2363 16.9551zM419.08 343.86c-19.4219 -17.3965 -37.1973 -35.7666 -53.9502 -55.7607h-60.8604v127.9h100.601l14.4102 -71.9404z" />
    <glyph glyph-name="ear-muffs-primary" unicode="&#xf795;" horiz-adv-x="640" 
d="M639 113c0.602539 -2.72949 0.908203 -5.56836 0.908203 -8.47754c0 -9.32422 -3.2627 -17.8916 -8.70801 -24.6221c5.28711 -6.65625 8.45996 -15.085 8.45996 -24.2383c0 -3.11914 -0.367188 -6.15332 -1.06055 -9.0625
c-2.72852 -11.7705 -10.5713 -21.5742 -21.0996 -26.8994c0.53125 -2.61035 0.796875 -5.30859 0.796875 -8.0752c0 -9.67773 -3.41211 -18.5654 -9.09668 -25.5254c-7.55371 -8.8291 -18.752 -14.4062 -31.2715 -14.4062
c-0.243164 0 -0.486328 0.00195312 -0.728516 0.00683594c-3.25977 -11.8916 -12.0234 -21.5029 -23.4004 -25.9004c-4.17285 -1.8623 -8.80469 -2.91504 -13.667 -2.91504c-0.345703 0 -0.689453 0.00488281 -1.0332 0.015625c-8.08984 0 -15.6738 2.40332 -22 6.5
c-7.24316 -7.86133 -17.6123 -12.7539 -29.1338 -12.7539c-21.8721 0 -39.6299 17.7578 -39.6299 39.6299c0 9.9082 3.64453 18.9727 9.66406 25.9238c-6.25293 6.91504 -10.1006 16.0742 -10.2002 26.0996c0 0.0869141 0.00683594 0.188477 0.00683594 0.275391
c0 9.80176 3.61914 18.7646 9.59375 25.625c-5.97656 6.95508 -9.59082 16.041 -9.59082 25.9209c0 9.88086 3.61426 18.9238 9.59082 25.8789c-5.97461 6.86035 -9.60156 15.8379 -9.60156 25.6396c0 0.0869141 0.000976562 0.173828 0.000976562 0.260742
c0.0996094 10.0244 3.94727 19.1846 10.2002 26.0996c-6.09961 7 -10.2002 15.9004 -10.2002 26c0 22.0762 17.9238 40 40 40c12.1006 0 22.6006 -5.7002 29.9004 -14.0996c10.7002 7 24.0996 9.5 36.7998 4.5c11.3652 -4.56934 20.1006 -14.2529 23.4004 -26.2002
c0.193359 0.00292969 0.364258 0.0302734 0.558594 0.0302734c12.5391 0 23.7471 -5.73926 31.1406 -14.7305c5.60254 -6.75293 8.98145 -15.4248 8.98145 -24.876c0 -2.99902 -0.338867 -5.91895 -0.981445 -8.72363c10.6846 -5.20996 18.6641 -15.0498 21.4004 -26.9004z
M151.94 224c0.119141 0.000976562 0.227539 -0.0146484 0.347656 -0.0146484c21.8828 0 39.6494 -17.7666 39.6494 -39.6504c0 -10.2002 -3.85938 -19.5059 -10.1973 -26.5352c6.25293 -6.91504 10.0996 -16.0742 10.2002 -26.0996
c0 -0.0869141 -0.0078125 -0.188477 -0.0078125 -0.275391c0 -9.80176 -3.61914 -18.7646 -9.59277 -25.625c5.97656 -6.95508 9.58984 -16.041 9.58984 -25.9209c0 -9.88086 -3.61328 -18.9238 -9.58984 -25.8789c5.97852 -6.96875 9.60059 -16.041 9.60059 -25.9336
v-0.266602c-0.102539 -9.94238 -3.91016 -19.0293 -10.1006 -25.8994c6.19043 -6.87109 9.99805 -15.958 10.1006 -25.9004c0 -22.0762 -17.9238 -40 -40 -40c-11.7686 0.0507812 -22.3193 5.25781 -29.5 13.5c-6.29688 -4.26953 -13.9297 -6.79102 -22.1006 -6.7998
c-5.27832 0.0419922 -10.3545 1.07715 -15 2.89941c-11.3096 4.6543 -20.0098 14.3018 -23.3994 26.2002c-0.194336 -0.00292969 -0.365234 -0.0302734 -0.55957 -0.0302734c-12.5381 0 -23.7471 5.73926 -31.1406 14.7305
c-5.58887 6.69531 -8.96289 15.3105 -8.96289 24.7051c0 2.9541 0.333008 5.83105 0.962891 8.59473c-13.2393 6.46484 -22.3154 20.0703 -22.3154 35.7842c0 9.33594 3.22266 17.9258 8.61523 24.7158c-5.24414 6.75781 -8.42285 15.249 -8.42285 24.457
c0 15.6406 9.0127 29.1934 22.123 35.7432c-0.55957 2.65625 -0.87207 5.38184 -0.87207 8.2041c0 21.9717 17.8379 39.8096 39.8096 39.8096c0.355469 0 0.708984 -0.00488281 1.0625 -0.0136719c3.55762 11.8955 12.334 21.5186 23.7002 26.2002
c12.5996 4.89941 25.7998 2.5 36.3994 -4.40039c7.15918 8.35254 17.7607 13.6436 29.6006 13.7002z" />
    <glyph glyph-name="ethernet-primary" unicode="&#xf796;" 
d="M192 0v128h32v-128h-32zM96 0v128h32v-128h-32zM288 0v128h32v-128h-32zM384 128h32v-128h-32v128z" />
    <glyph glyph-name="fireplace-primary" unicode="&#xf79a;" horiz-adv-x="640" 
d="M624 448c8.83105 0 16 -7.16895 16 -16v-64c0 -8.83105 -7.16895 -16 -16 -16h-608c-8.83105 0 -16 7.16895 -16 16v64c0 8.83105 7.16895 16 16 16h608zM32 -64v384h576v-384h-96v128c0 106 -86 192 -192 192s-192 -86 -192 -192v-128h-96z" />
    <glyph glyph-name="frosty-head-primary" unicode="&#xf79b;" horiz-adv-x="384" 
d="M368 208c8.83105 0 16 -7.16895 16 -16v-16c0 -8.83105 -7.16895 -16 -16 -16h-352c-8.83105 0 -16 7.16895 -16 16v16c0 8.83105 7.16895 16 16 16h352zM320 432v-192h-256v192c0 8.83105 7.16895 16 16 16h224c8.83105 0 16 -7.16895 16 -16z" />
    <glyph glyph-name="gifts-primary" unicode="&#xf79c;" horiz-adv-x="640" 
d="M240.6 253.88c-27.8037 -6.89258 -48.4873 -31.9834 -48.5996 -61.8799v-224c0.0791016 -11.6504 3.3418 -22.6367 8.90039 -32h-168.9c-17.6611 0 -32 14.3389 -32 32v352c0 17.6611 14.3389 32 32 32h224c12.666 -0.0576172 23.5732 -7.5293 28.5996 -18.3203
c-26.6992 -18.5996 -42.0996 -49 -44 -79.7998zM456 104h184v-48h-184v-120h-48v120h-184v48h184v88h-65.8799c-0.0322266 0 -0.0996094 0.015625 -0.131836 0.015625c-16.915 0 -32.3994 6.17676 -44.3184 16.3945h-0.0498047l-0.0605469 0.0595703l-0.199219 0.169922
l-0.200195 0.180664c-15.4336 13.4043 -25.1611 33.1484 -25.1611 55.1748c0 0.0986328 0.000976562 0.196289 0.000976562 0.294922c0.0175781 17.1963 5.90039 33.0967 15.71 45.71c6.42578 8.2666 14.5898 14.9463 24.0703 19.6104
c9.58203 4.68164 20.4053 7.35156 31.7803 7.35156c0.179688 0 0.360352 -0.000976562 0.539062 -0.00195312c29.3301 0 50.5303 -18.5996 63.1504 -34.2002c11.5195 -14.2402 19.75 -30.2998 24.75 -41.7598c5 11.4004 13.1797 27.3799 24.6797 41.6504
c12.6504 15.6699 33.8799 34.3496 63.2207 34.3496c0.131836 0.000976562 0.324219 -0.0400391 0.456055 -0.0400391c11.4307 0 22.2461 -2.6543 31.8633 -7.37988c9.47754 -4.65527 17.6416 -11.3242 24.0703 -19.5801c9.80957 -12.6133 15.6924 -28.5137 15.71 -45.71
c0.000976562 -0.113281 0.0380859 -0.205078 0.0380859 -0.319336c0 -22.0459 -9.78125 -41.8252 -25.2383 -55.2305l-0.200195 -0.180664l-0.199219 -0.169922l-0.0703125 -0.0595703h-0.0498047c-11.9072 -10.1699 -27.3887 -16.3301 -44.2598 -16.3301h-0.140625
h-65.8799v-88zM519.9 288.65c-18.7002 0 -35.7002 -27.8906 -44.5 -48.3203h46.4795c0.0566406 -0.000976562 0.123047 0.00488281 0.179688 0.00488281c4.97852 0 9.54199 1.79199 13.0801 4.76465l0.0605469 0.0605469c5.38965 4.54688 8.80078 11.3398 8.80078 18.9355
c0 0.0654297 0 0.129883 -0.000976562 0.194336c0 9.75977 -6.40039 24.3604 -24.0996 24.3604zM342.12 240.33h46.4795c-8.89941 20.7402 -25.7998 48.3203 -44.5 48.3203c-17.6992 0 -24.0996 -14.6006 -24.0996 -24.3604
c-0.000976562 -0.0644531 -0.015625 -0.119141 -0.015625 -0.183594c0 -7.59668 3.42578 -14.3994 8.81543 -18.9463l0.0605469 -0.0605469c3.53809 -2.97266 8.11035 -4.77051 13.0889 -4.77051c0.0566406 0 0.114258 0 0.170898 0.000976562z" />
    <glyph glyph-name="gingerbread-man-primary" unicode="&#xf79d;" horiz-adv-x="416" 
d="M208 208c-8.83105 0 -16 7.16895 -16 16s7.16895 16 16 16s16 -7.16895 16 -16s-7.16895 -16 -16 -16zM208 176c8.83105 0 16 -7.16895 16 -16s-7.16895 -16 -16 -16s-16 7.16895 -16 16s7.16895 16 16 16zM208 112c8.83105 0 16 -7.16895 16 -16s-7.16895 -16 -16 -16
s-16 7.16895 -16 16s7.16895 16 16 16z" />
    <glyph glyph-name="glass-champagne-primary" unicode="&#xf79e;" horiz-adv-x="256" 
d="M216 -16c22.0762 0 40 -17.9238 40 -40c0 -4.41504 -3.58496 -8 -8 -8h-240c-4.41504 0 -8 3.58496 -8 8c0 22.0762 17.9238 40 40 40h56v116.3c-60.7002 15.2002 -103.3 72 -95 135.4l27 184.899c2.27734 15.4746 15.627 27.4004 31.7305 27.4004h136.6
c16.0762 -0.0292969 29.3955 -11.9443 31.6699 -27.4004l27 -184.899c8.2998 -63.4004 -34.2998 -120.2 -95 -135.4v-116.3h56zM74.7002 187.18c25.5195 -35.6494 81.0303 -35.8096 106.67 0c6.70898 9.20703 10.7002 20.5342 10.7002 32.7881
c0 2.38184 -0.150391 4.72852 -0.44043 7.03223l-22.9297 157h-81.3301l-22.9297 -157c-0.293945 -2.3125 -0.414062 -4.66016 -0.414062 -7.05078c0 -12.2461 3.96191 -23.5732 10.6738 -32.7695z" />
    <glyph glyph-name="glass-cheers-primary" unicode="&#xf79f;" horiz-adv-x="640" 
d="M639.39 14.4102c0.383789 -0.935547 0.604492 -1.95996 0.604492 -3.03223c0 -3.31836 -2.02441 -6.16699 -4.9043 -7.37793l-162.39 -67.3799c-0.935547 -0.396484 -1.9707 -0.620117 -3.0498 -0.620117c-3.31152 0.0136719 -6.14844 2.03906 -7.35059 4.91992
c-1.96094 4.71973 -3.08789 9.9043 -3.08789 15.3301c0 16.6543 10.2002 30.9443 24.6885 36.96l22.0996 9.2002l-39.2998 103.609c-4.40039 -0.5 -8.7998 -1.2998 -13.1006 -1.2998c-51.6992 0 -99.3896 33.0898 -113.39 85.2803l-20.21 75.3701l-20.1904 -75.3896
c-14 -52.1904 -61.6992 -85.2803 -113.399 -85.2803c-4.2998 0 -8.7002 0.799805 -13.1006 1.2998l-39.3994 -103.59l22.0898 -9.2002c14.4844 -6.04199 24.6318 -20.3525 24.6318 -37.0166c0 -5.41113 -1.0752 -10.5723 -3.02148 -15.2832
c-1.16992 -2.88574 -3.99707 -4.91895 -7.30078 -4.91992c-1.09473 0.00195312 -2.14551 0.224609 -3.09961 0.620117l-162.29 67.3896c-2.89844 1.20312 -4.92969 4.06348 -4.92969 7.39453c0 1.10547 0.223633 2.1582 0.629883 3.11523
c5.96289 14.4912 20.2373 24.6611 36.8691 24.6611c5.43164 0 10.6104 -1.08887 15.3311 -3.06055l22.0996 -9.2002l38.7002 101.88c-47.9004 34.9004 -64.7002 100.19 -34.5 152.68l86.5898 150.48c5.5332 9.60352 15.8818 16.042 27.75 16.0498
c4.33203 0 8.4873 -0.884766 12.25 -2.45996l114.29 -47.3896l114.3 47.3896c3.76367 1.5498 7.88477 2.45312 12.2041 2.45312c11.8691 0 22.2412 -6.45508 27.7959 -16.043l86.6006 -150.48c30.29 -52.4893 13.3896 -117.779 -34.5 -152.779l38.6992 -101.881
l22.0908 9.2002c4.71973 1.97168 9.9082 3.10449 15.3398 3.10449c16.6318 0 30.8965 -10.2129 36.8594 -24.7041zM239.39 205.88l36.1299 141.21l-68.9492 28.7598l-75 -125c-4.29785 -7.4873 -6.78516 -16.1904 -6.78516 -25.4355
c0 -4.1123 0.486328 -8.11133 1.40527 -11.9443c9.0293 -39.2393 56.0195 -59.0098 90.4199 -37.7197c11.0264 6.69238 19.2676 17.4111 22.7793 30.1299zM514 213.47c0.921875 3.83887 1.38184 7.875 1.38184 11.9951c0 9.22363 -2.44922 17.8809 -6.73145 25.3555
l-74.9502 125l-68.9404 -28.7607l36.04 -141.18c3.5127 -12.7158 11.75 -23.4336 22.7705 -30.1299c34.4297 -21.2803 81.4297 -1.51953 90.4297 37.7197z" />
    <glyph glyph-name="glass-whiskey-primary" unicode="&#xf7a0;" 
d="M442.63 352h-373.21l50.1797 -319.12l0.0703125 -0.439453l0.0605469 -0.400391h273.06v0.30957l0.0703125 0.430664zM480 416c17.6611 0 32.001 -14.3066 32.001 -31.9678c0 -1.54199 -0.109375 -3.05859 -0.321289 -4.54199l-55.5693 -356.58
c-4.47754 -30.9932 -31.1768 -54.9043 -63.4004 -54.9102h-273c-0.0126953 0 -0.0273438 0.0644531 -0.0410156 0.0644531c-32.2148 0 -58.9023 23.8535 -63.3486 54.8457l-56 356.58c-0.211914 1.4834 -0.319336 2.96777 -0.319336 4.50977c0 17.6611 14.3379 32 31.999 32
h448z" />
    <glyph glyph-name="glass-whiskey-rocks-primary" unicode="&#xf7a1;" 
d="M442.63 352h-373.21l50.1797 -319.12l0.0703125 -0.439453l0.0605469 -0.400391h273.06v0.30957l0.0703125 0.430664zM480 416c17.6611 0 32.001 -14.3066 32.001 -31.9678c0 -1.54199 -0.109375 -3.05859 -0.321289 -4.54199l-55.5693 -356.58
c-4.47754 -30.9932 -31.1768 -54.9043 -63.4004 -54.9102h-273c-0.0126953 0 -0.0273438 0.0644531 -0.0410156 0.0644531c-32.2148 0 -58.9023 23.8535 -63.3486 54.8457l-56 356.58c-0.211914 1.4834 -0.319336 2.96777 -0.319336 4.50977c0 17.6611 14.3379 32 31.999 32
h448z" />
    <glyph glyph-name="globe-snow-primary" unicode="&#xf7a3;" horiz-adv-x="448" 
d="M134.1 96c-14.1992 0 -22 15 -12.8994 24.9004l65.5 71.0996h-30.1006c-10.6992 0 -16.5 11.2002 -9.69922 18.7002l67.3994 73.2002c2.43164 2.54297 5.85742 4.12793 9.65039 4.12793s7.21875 -1.58496 9.64941 -4.12793l67.4004 -73.2002
c6.7998 -7.40039 1 -18.7002 -9.7002 -18.7002h-30.0996l65.5 -71.0996c9.09961 -9.90039 1.2998 -24.9004 -12.9004 -24.9004h-57.7998v-32h-64v32h-57.9004zM431.4 -39.0996c1.70117 -2.54199 2.70312 -5.61426 2.70312 -8.90039c0 -8.83105 -7.16895 -16 -16 -16
h-0.00390625h-388.199l0.00488281 0.015625c-8.83008 0 -16 7.16992 -16 16c0 3.28613 0.993164 6.34277 2.69434 8.88477l47.4004 71.0996h320z" />
    <glyph glyph-name="grip-lines-primary" unicode="&#xf7a4;" 
d="M512 272v-32c0 -8.83105 -7.16895 -16 -16 -16h-480c-8.83105 0 -16 7.16895 -16 16v32c0 8.83105 7.16895 16 16 16h480c8.83105 0 16 -7.16895 16 -16z" />
    <glyph glyph-name="hat-santa-primary" unicode="&#xf7a7;" horiz-adv-x="640" 
d="M480 64c17.6611 0 32 -14.3389 32 -32v-32c0 -17.6611 -14.3389 -32 -32 -32h-448c-17.6611 0 -32 14.3389 -32 32v32c0 17.6611 14.3389 32 32 32h448zM640 208c0 -12.0996 -8.2002 -21.9004 -19.2002 -25.2002c5.5 -10.0996 4.40039 -22.7998 -4.2002 -31.3994
c-4.85254 -4.81348 -11.5342 -7.78906 -18.8994 -7.80078c-4.2998 0 -8.5 1.5 -12.5 3.60059c-3.2998 -11 -13.1006 -19.2002 -25.2002 -19.2002s-21.9004 8.2002 -25.2002 19.2002c-3.8125 -2.2793 -8.29883 -3.6123 -13.0596 -3.6123
c-7.20215 0 -13.709 2.99805 -18.3398 7.8125c-8.60059 8.59961 -9.7002 21.2998 -4.2002 31.3994c-11 3.2998 -19.2002 13.1006 -19.2002 25.2002s8.2002 21.9004 19.2002 25.2002c-5.5 10.0996 -4.40039 22.7998 4.2002 31.3994
c8.59961 8.60059 21.2998 9.7002 31.3994 4.2002c3.2998 11 13.1006 19.2002 25.2002 19.2002s21.9004 -8.2002 25.2002 -19.2002c10.0996 5.5 22.7998 4.40039 31.3994 -4.2002c8.60059 -8.59961 9.7002 -21.2998 4.2002 -31.3994
c11 -3.2998 19.2002 -13.1006 19.2002 -25.2002z" />
    <glyph glyph-name="hat-winter-primary" unicode="&#xf7a8;" 
d="M195.2 342.8c-11 3.2998 -19.2002 13.1006 -19.2002 25.2002s8.2002 21.9004 19.2002 25.2002c-5.5 10.0996 -4.40039 22.7998 4.2002 31.3994c8.59961 8.60059 21.2998 9.7002 31.3994 4.2002c3.2998 11 13.1006 19.2002 25.2002 19.2002
s21.9004 -8.2002 25.2002 -19.2002c10.0996 5.5 22.7998 4.40039 31.3994 -4.2002c8.60059 -8.59961 9.7002 -21.2998 4.2002 -31.3994c11 -3.2998 19.2002 -13.1006 19.2002 -25.2002s-8.2002 -21.9004 -19.2002 -25.2002c5.5 -10.0996 4.40039 -22.7998 -4.2002 -31.3994
c-4.85254 -4.81348 -11.5342 -7.78906 -18.8994 -7.80078c-4.2998 0 -8.5 1.5 -12.5 3.60059c-3.2998 -11 -13.1006 -19.2002 -25.2002 -19.2002s-21.9004 8.2002 -25.2002 19.2002c-3.8125 -2.2793 -8.29883 -3.6123 -13.0596 -3.6123
c-7.20215 0 -13.709 2.99805 -18.3398 7.8125c-8.60059 8.59961 -9.7002 21.2998 -4.2002 31.3994zM465.7 118.9c14.0996 -48.7002 14.2998 -86.9004 14.2998 -86.9004h-448s0.200195 38.2002 14.2998 86.9004l17.7002 -8.80078l64 32l64 -32l64 32l64 -32l64 32l64 -32z
" />
    <glyph glyph-name="holly-berry-primary" unicode="&#xf7aa;" horiz-adv-x="448" 
d="M144.06 352c26.4922 0 48 -21.5078 48 -48s-21.5078 -48 -48 -48c-26.4912 0 -48 21.5078 -48 48s21.5088 48 48 48zM304.06 352c26.4922 0 48 -21.5078 48 -48s-21.5078 -48 -48 -48c-26.4912 0 -48 21.5078 -48 48s21.5088 48 48 48zM272.06 400
c0 -26.4922 -21.5078 -48 -48 -48c-26.4912 0 -48 21.5078 -48 48s21.5088 48 48 48c26.4922 0 48 -21.5078 48 -48z" />
    <glyph glyph-name="ice-skate-primary" unicode="&#xf7ac;" horiz-adv-x="576" 
d="M78.4004 365.3l177.6 50.7002v16c0 8.83105 7.16895 16 16 16h32c8.83105 0 16 -7.16895 16 -16v-80h-56c-4.41504 0 -8 -3.58496 -8 -8v-16c0 -4.41504 3.58496 -8 8 -8h56v-32h-56c-4.41504 0 -8 -3.58496 -8 -8v-16c0 -4.41504 3.58496 -8 8 -8h56l119.3 -29.9004
c41.71 -10.4346 72.6865 -48.1787 72.7002 -93.0996v-37c0 -17.6611 -14.3389 -32 -32 -32h-416c-17.6611 0 -32 14.3389 -32 32v207.8c0.0146484 29.2012 19.6396 53.8457 46.4004 61.5z" />
    <glyph glyph-name="icicles-primary" unicode="&#xf7ad;" 
d="M480 448c17.6191 -0.0498047 31.9102 -14.3682 31.9102 -31.999v-0.0507812c-0.00878906 -2.00586 -0.196289 -3.94434 -0.549805 -5.85059l-87.5 -467.699c-1.7002 -8.60059 -14 -8.60059 -15.7002 0l-86.2197 467.8
c-0.348633 1.88965 -0.530273 3.80957 -0.530273 5.7998c0 17.6611 14.3389 32 32 32h126.59z" />
    <glyph glyph-name="igloo-primary" unicode="&#xf7ae;" horiz-adv-x="576" 
d="M320 414.1v-126.1h-271.4c51.5508 77.3145 139.373 128 239.185 128h0.21582c10.916 -0.0263672 21.4072 -0.664062 32 -1.90039zM96 256v-128h-96c0.0419922 45.8848 11.0566 89.5439 30.2998 128h65.7002zM352 408.6c72.793 -16.5508 135.136 -60.4248 175.4 -120.6
h-175.4v120.6zM480 128v128h65.7002c19.2432 -38.4561 30.2578 -82.1152 30.2998 -128h-96zM416 64c0 11.0996 -1.90039 21.7002 -4.5 32h164.5v-96c0 -17.6611 -14.3389 -32 -32 -32h-128v96zM448 256v-128h-49.7998c-22.2002 38.0996 -63 64 -110.2 64
s-88 -25.9004 -110.2 -64h-49.7998v128h320zM0 0v96h164.5c-2.59961 -10.2998 -4.5 -20.9004 -4.5 -32v-96h-128c-17.6611 0 -32 14.3389 -32 32z" />
    <glyph glyph-name="mistletoe-primary" unicode="&#xf7b4;" horiz-adv-x="576" 
d="M373.23 416c0.00683594 0 0.0126953 -0.00195312 0.0195312 -0.00195312c23.5283 0 42.6357 -19.0801 42.6797 -42.5977c0 -0.0175781 0.000976562 -0.0332031 0.000976562 -0.0507812c0 -23.5391 -19.1104 -42.6494 -42.6494 -42.6494
s-42.6504 19.1104 -42.6504 42.6494c0 23.5225 19.083 42.623 42.5996 42.6504zM213.23 181c0.00683594 0 0.0126953 -0.00195312 0.0195312 -0.00195312c23.5283 0 42.6357 -19.0801 42.6797 -42.5977c0 -0.0175781 0.000976562 -0.0332031 0.000976562 -0.0507812
c0 -23.5391 -19.1104 -42.6494 -42.6494 -42.6494s-42.6504 19.1104 -42.6504 42.6494c0 23.5225 19.083 42.623 42.5996 42.6504z" />
    <glyph glyph-name="mitten-primary" unicode="&#xf7b5;" horiz-adv-x="448" 
d="M433.12 151l-72.5 -87h-309l-47.9004 207.58c-2.41016 10.4385 -3.68359 21.3105 -3.68359 32.4775c0 68.3037 47.7344 125.474 111.584 140.223c77.3994 17.8994 154.8 -30.5 172.8 -108l29.5801 -128.4l20.9004 25c11.7275 14.417 29.6074 23.6328 49.6221 23.6328
c35.29 0 63.9404 -28.6504 63.9404 -63.9395c0 -15.8389 -5.80957 -30.4189 -15.3633 -41.5928z" />
    <glyph glyph-name="mug-hot-primary" unicode="&#xf7b6;" 
d="M400 256c61.8145 0 112 -50.1855 112 -112s-50.1855 -112 -112 -112h-16c0 -52.9834 -43.0166 -96 -96 -96h-192c-52.9834 0 -96 43.0166 -96 96v192c0 17.6611 14.3389 32 32 32h368zM400 96c26.4922 0 48 21.5078 48 48s-21.5078 48 -48 48h-16v-96h16z" />
    <glyph glyph-name="ornament-primary" unicode="&#xf7b8;" horiz-adv-x="384" 
d="M192 -64c-71 0 -132.9 38.7002 -166.1 96h332.199c-33.1992 -57.2998 -95.0996 -96 -166.1 -96zM288 294.18c29.167 -16.957 53.1748 -40.9912 70.0996 -70.1797h-332.199c16.9248 29.1885 40.9326 53.2227 70.0996 70.1797v41.8203c0 8.83105 7.16895 16 16 16h160
c8.83105 0 16 -7.16895 16 -16v-41.8203z" />
    <glyph glyph-name="restroom-primary" unicode="&#xf7bd;" horiz-adv-x="640" 
d="M623.3 93.5c3.7002 -15.0996 -8.2998 -29.5 -24.5 -29.5h-54.7998v-104c0 -0.0205078 0.000976562 -0.0400391 0.000976562 -0.0605469c0 -13.2119 -10.7266 -23.9395 -23.9395 -23.9395h-0.0615234h-48c-0.0205078 0 -0.0400391 -0.000976562 -0.0605469 -0.000976562
c-13.2119 0 -23.9395 10.7266 -23.9395 23.9395v0.0615234v104h-54.7998c-16.2002 0 -28.2002 14.4004 -24.7002 29.5l45.5996 185.8c3.30078 13.5 15.5 23 29.8008 24.2002c14.9229 -9.76074 32.9502 -15.4375 52.0977 -15.4375c19.1465 0 36.9785 5.67676 51.9023 15.4375
c14.2998 -1.2002 26.5 -10.7002 29.7998 -24.2002zM164.1 303.6c24.5215 -2.0166 43.8691 -22.5693 43.9004 -47.5996v-136c0 -0.0205078 0.000976562 -0.0400391 0.000976562 -0.0605469c0 -13.2119 -10.7266 -23.9395 -23.9395 -23.9395h-0.0615234h-8v-136
c0 -0.0205078 0.000976562 -0.0400391 0.000976562 -0.0605469c0 -13.2119 -10.7266 -23.9395 -23.9395 -23.9395h-0.0615234h-80c-0.0205078 0 -0.0400391 -0.000976562 -0.0605469 -0.000976562c-13.2119 0 -23.9395 10.7266 -23.9395 23.9395v0.0615234v136h-8
c-0.0205078 0 -0.0400391 -0.000976562 -0.0605469 -0.000976562c-13.2119 0 -23.9395 10.7266 -23.9395 23.9395v0.0615234v136c0.03125 25.0303 19.3789 45.583 43.9004 47.5996c14.9346 -9.82422 33 -15.542 52.1963 -15.542c19.1973 0 37.0684 5.71777 52.0029 15.542z
" />
    <glyph glyph-name="rv-primary" unicode="&#xf7be;" horiz-adv-x="640" 
d="M512 416c52.7119 0 95.5615 -42.5908 96 -95.2002c0.0996094 -18 -14.0996 -32.7998 -32 -32.7998h-192v-256h-117.52c-13.1934 37.2666 -48.6846 64.042 -90.4482 64.042c-38.9424 0 -72.501 -23.2383 -87.5518 -56.5918l-69.7803 69.7002
c-11.5586 11.5811 -18.7002 27.5693 -18.7002 45.207v0.102539v197.54c0.0380859 35.3047 28.6953 63.9619 64 64h160v16c0 8.83105 7.16895 16 16 16h128c8.83105 0 16 -7.16895 16 -16v-16h128zM256 240v64c0 8.83105 -7.16895 16 -16 16h-128
c-8.83105 0 -16 -7.16895 -16 -16v-64c0 -8.83105 7.16895 -16 16 -16h128c8.83105 0 16 7.16895 16 16z" />
    <glyph glyph-name="scarf-primary" unicode="&#xf7c1;" 
d="M279.12 327.49l19.5 19.3994c-13.7188 3.24121 -28.0244 4.95703 -42.7275 4.95703c-14.4004 0 -28.2129 -1.64453 -41.6729 -4.75684l155.4 -155.09l-113.09 -113.11l-135.101 140.7c-48.5996 53.7002 -13 113.3 -11.5 115.8l43.6006 73.1006
c4.23828 7.19922 9.92969 13.2891 16.7998 18c44 29.7002 130.7 27.5996 171.3 0.0996094c6.87012 -4.71094 12.5615 -10.8008 16.7998 -18l43.7002 -73.3994c7.2002 -12 33.4004 -65.6006 -13.2002 -117.301z" />
    <glyph glyph-name="sd-card-primary" unicode="&#xf7c2;" horiz-adv-x="384" 
d="M320 448c35.3076 -0.0332031 63.9668 -28.6924 64 -64v-384c-0.0332031 -35.3076 -28.6924 -63.9668 -64 -64h-256c-35.3076 0.0332031 -63.9668 28.6924 -64 64v320l128 128h192zM160 288v96h-48v-96h48zM240 288v96h-48v-96h48zM320 288v96h-48v-96h48z" />
    <glyph glyph-name="shovel-snow-primary" unicode="&#xf7c3;" 
d="M342.66 146.1c5.7666 -5.74609 9.31934 -13.7236 9.31934 -22.5c0 -7.29883 -2.4707 -14.0264 -6.61914 -19.3896l-120.4 -155.81c-0.827148 -1.06738 -1.70703 -2.05664 -2.66992 -3c-5.75098 -5.75098 -13.7021 -9.31055 -22.4697 -9.31055
c-8.7666 0 -16.71 3.55957 -22.46 9.31055l-168 168c-0.998047 0.996094 -1.91406 2.03418 -2.78027 3.14941c-4.11914 5.34766 -6.60742 12.0566 -6.60742 19.3223c0 10.2285 4.85645 19.332 12.3877 25.1279l155.899 120.31c5.36621 4.1416 12.1201 6.625 19.415 6.625
c8.78027 0 16.7324 -3.56934 22.4854 -9.33496zM122.66 100.1c0.375977 0.367188 0.775391 0.705078 1.10938 1.11035l79.9004 79.9004c2.48926 2.82031 3.99512 6.52832 3.99512 10.583c0 8.83105 -7.16895 16 -16 16c-3.99023 0 -7.6416 -1.46387 -10.4453 -3.88379
l-0.120117 -0.129883l-79.8994 -79.8994c-2.87988 -2.89453 -4.64746 -6.87988 -4.64746 -11.2803c0 -8.83105 7.16895 -16 16 -16c3.83203 0 7.35059 1.34961 10.1074 3.59961zM267.58 117.19c3.38574 2.93457 5.52344 7.27051 5.52344 12.0986
c0 8.83008 -7.16895 16 -16 16c-4.82715 0 -9.15918 -2.14355 -12.0938 -5.5293l-79.8896 -79.8994c-2.87988 -2.89453 -4.64746 -6.87988 -4.64746 -11.2803c0 -8.83105 7.16895 -16 16 -16c3.83203 0 7.35059 1.34961 10.1074 3.59961
c0.379883 0.350586 0.759766 0.720703 1.11035 1.11035z" />
    <glyph glyph-name="skating-primary" unicode="&#xf7c5;" horiz-adv-x="448" 
d="M360.85 283.7l-82.25 -82.2998c-0.542969 -0.401367 -1.1084 -0.767578 -1.69922 -1.10059l61 -61c8.69434 -8.67285 14.0771 -20.666 14.0996 -33.8994v-89.4004c0 -17.6611 -14.3389 -32 -32 -32s-32 14.3389 -32 32v82.7998l-78.2002 78.2002
c-11.5869 11.5752 -18.7842 27.5635 -18.7842 45.2197c0 19.4307 8.68652 36.8496 22.3848 48.5801l20.0996 17.2002h-105.5c-17.6611 0 -32 14.3389 -32 32s14.3389 32 32 32h204.55c0.0107422 0 0.0263672 -0.00585938 0.0371094 -0.00585938
c22.0771 0 40 -17.9229 40 -40c0 -11.0459 -4.4873 -21.0527 -11.7373 -28.2939zM173.85 171.2c3.77539 -6.12891 8.16504 -11.708 13.2002 -16.7998l30.2002 -30.2002l-91.9004 -91.9004c-5.72266 -5.80469 -13.6768 -9.40039 -22.4648 -9.40039
c-0.0449219 0 -0.0898438 0 -0.134766 0.000976562c-17.6357 0.0302734 -31.9492 14.3613 -31.9492 32.0039c0 8.81738 3.57324 16.8057 9.34961 22.5957z" />
    <glyph glyph-name="ski-jump-primary" unicode="&#xf7c7;" 
d="M113.7 33.2002c-5.98242 5.79102 -9.70312 13.9043 -9.70312 22.8799c0 4.28223 0.868164 8.38965 2.40332 12.1201c60.3994 146.899 56.7998 138.899 60.1992 143.3l58.9004 76.5h-97.5c-17.6611 0 -32 14.3389 -32 32s14.3389 32 32 32h184h0.0322266
c22.0762 0 40 -17.9238 40 -40c0 -11.0459 -4.48242 -21.0586 -11.7324 -28.2998l-121.399 -110.5l-44.9004 -109z" />
    <glyph glyph-name="ski-lift-primary" unicode="&#xf7c8;" 
d="M307.65 225.2c7.52344 -5.79688 12.3496 -14.8799 12.3496 -25.1025v-0.0976562v-140.5l-64 -23.7002v123.2l-88.2002 -22.0996c-17.0996 -4.30078 -31.8994 4.19922 -39.7998 23.2998l-27.8496 68.0996c-2.7002 6.00195 -4.25098 12.7363 -4.25098 19.7393
c0 26.5068 21.5195 48.0264 48.0264 48.0264c19.5029 0 36.3066 -11.6504 43.8242 -28.3652l24.0996 -53.7002l68.3008 17c2.53027 0.654297 5.19531 0.992188 7.92969 0.992188c7.38672 0 14.1855 -2.53906 19.5703 -6.79199z" />
    <glyph glyph-name="skiing-primary" unicode="&#xf7c9;" 
d="M293 232.3l40.4004 -40.5c8.69727 -8.68945 14.0449 -20.751 14.0449 -34.0039c0 -9.83398 -2.96387 -18.9805 -8.04492 -26.5957l-49.2002 -73.7998l-57.2998 29.5996l45.8994 68.7998l-75.0996 75.2002c-11.3906 11.5264 -18.4219 27.3125 -18.4219 44.7812
c0 3.26953 0.246094 6.48145 0.72168 9.61914zM462.3 252.6c10.542 -5.29297 17.7217 -16.1279 17.7217 -28.7178c0 -17.7715 -14.4287 -32.2002 -32.2002 -32.2002c-5.06445 0 -9.85645 1.17188 -14.1211 3.25879l-58.1006 29
c-11.2988 5.62109 -19.9961 15.5674 -24 27.6992l-10.7598 29l-113.67 56.1807l81.4297 32.2793c43.6006 17.4004 76.4004 -15 84.5 -39.1992l17.1006 -51.2002z" />
    <glyph glyph-name="skiing-nordic-primary" unicode="&#xf7ca;" horiz-adv-x="576" 
d="M186.2 115.8c7.76367 -11.3008 17.7295 -20.7021 29.5 -27.7998l22 -13l-43.1006 -91h-70.8994zM448 224c17.6611 0 32 -14.3389 32 -32s-14.3389 -32 -32 -32h-54c-18.9023 0.0908203 -35.2314 11.0049 -43.0996 26.9004l-20.3008 41.3994l-31.2998 -78.2998
l61.2002 -36.0996c14.0439 -8.44043 23.3896 -23.7832 23.3896 -41.3467c0 -4.52246 -0.624023 -8.90137 -1.79004 -13.0537l-23.5996 -75.5h-67l25.5 81.2002l-85 50.2002c-18.8535 11.1846 -31.4043 31.751 -31.4043 55.2432c0 8.90723 1.81836 17.3936 5.10449 25.1064
l37.5 87.4004l-14.7002 4.39941c-7.90039 1.90039 -17.5996 -0.200195 -25.2998 -6.09961l-36.4902 -28c-5.82715 -5.85352 -13.9219 -9.48926 -22.8252 -9.48926c-17.7559 0 -32.1699 14.415 -32.1699 32.1699c0 10.4785 5.02051 19.7939 12.7852 25.6689l39.7002 30.4004
c16.1348 12.3809 36.3467 19.7783 58.2363 19.7783c7.77148 0 15.3271 -0.927734 22.5635 -2.67871l71.2002 -21.2002c26.2998 -6.69922 49.2998 -25.3994 61.7998 -50.8994l26.0996 -53.2002h43.9004z" />
    <glyph glyph-name="sledding-primary" unicode="&#xf7cb;" 
d="M384.1 160v-96c0 -7.5 -3 -14 -7.19922 -19.4004l-56.9004 29.4004v54h-104.53l-54.7695 28.2998c-0.208008 1.47266 -0.316406 2.97656 -0.316406 4.50586c0 4.01953 0.757812 7.84961 2.11621 11.3945c1.57422 3.94238 3.92871 7.46582 6.90039 10.3994
l73.3994 73.4004h-82.7998c-17.6611 0 -32 14.3389 -32 32s14.3389 32 32 32h153.5c26.4531 -0.0449219 47.916 -21.5361 47.916 -48c0 -13.2246 -5.35156 -25.2148 -14.0156 -33.9004l-46.1006 -46.0996h50.7998c17.6621 0 32 -14.3389 32 -32z" />
    <glyph glyph-name="sleigh-primary" unicode="&#xf7cc;" horiz-adv-x="640" 
d="M0 384c0 17.6611 14.3389 32 32 32h20.7002c67.9844 -0.0322266 126.792 -39.0273 155.3 -96c28.4883 -56.9893 87.3047 -95.9941 155.3 -96h20.7002c35.3076 0.0332031 63.9668 28.6924 64 64v64h96c17.6611 0 32 -14.3389 32 -32s-14.3389 -32 -32 -32v-96
c0 -52.9834 -43.0166 -96 -96 -96v-48h-64v48h-192v-48h-64v52.5c-55.0996 14.2998 -96 63.9004 -96 123.5v128c-17.6611 0 -32 14.3389 -32 32z" />
    <glyph glyph-name="sms-primary" unicode="&#xf7cd;" 
d="M397.3 210.7c8.06445 -6.72559 13.2041 -16.8105 13.2998 -28.1006c0.100586 -21.2998 -18.8994 -38.5996 -42.2998 -38.5996h-12.2998c-4.41504 0 -8 3.58496 -8 8v16c0 4.41504 3.58496 8 8 8h12.2998c6 0 10.4004 3.5 10.4004 6.59961
c-0.12793 1.55176 -0.921875 2.91699 -2.10059 3.80078l-21.8994 18.7998c-8.06445 6.72559 -13.2041 16.8105 -13.2998 28.0996c0 21.2998 19 38.6006 42.3994 38.6006h12.2002c4.41504 0 8 -3.58496 8 -8v-16c0 -4.41602 -3.58496 -8 -8 -8h-12.2998
c-6 0 -10.4004 -3.5 -10.4004 -6.60059c0.12793 -1.55176 0.921875 -2.91699 2.10059 -3.7998zM304 272c8.83105 0 16 -7.16895 16 -16v-104c0 -4.41504 -3.58496 -8 -8 -8h-16c-4.41504 0 -8 3.58496 -8 8v68.2002l-24.7998 -55.7998
c-1.31543 -2.62012 -4.0166 -4.41992 -7.14551 -4.41992s-5.83984 1.7998 -7.1543 4.41992l-24.9004 55.7998v-68.2002c0 -4.41504 -3.58496 -8 -8 -8h-16c-4.41504 0 -8 3.58496 -8 8v104c0 8.83105 7.16895 16 16 16h16c0.0205078 0 0.03125 0.015625 0.0517578 0.015625
c6.2334 0 11.6357 -3.59082 14.248 -8.81543l17.7002 -35.4004l17.7002 35.4004c2.63379 5.22656 8.04004 8.7998 14.2881 8.7998h0.0117188h16zM157.3 210.7c8.06445 -6.72559 13.2041 -16.8105 13.2998 -28.1006c0.100586 -21.2998 -19 -38.5996 -42.3994 -38.5996
h-12.2002c-4.41504 0 -8 3.58496 -8 8v16c0 4.41504 3.58496 8 8 8h12.2998c6 0 10.4004 3.5 10.4004 6.59961c-0.12793 1.55176 -0.921875 2.91699 -2.10059 3.80078l-21.8994 18.7998c-8.06445 6.72559 -13.2041 16.8105 -13.2998 28.0996
c0 21.2998 19 38.6006 42.3994 38.6006h12.2002c4.41504 0 8 -3.58496 8 -8v-16c0 -4.41602 -3.58496 -8 -8 -8h-12.2998c-6 0 -10.4004 -3.5 -10.4004 -6.60059c0.12793 -1.55176 0.921875 -2.91699 2.10059 -3.7998z" />
    <glyph glyph-name="snowboarding-primary" unicode="&#xf7ce;" 
d="M505.45 204.8c-5.83984 -7.78516 -15.1436 -12.8271 -25.6152 -12.8271c-7.18945 0 -13.8398 2.41895 -19.1846 6.42773l-83.5 62.8994l-66 -30.5l52 -39c11.6494 -8.78711 19.1846 -22.7432 19.1846 -38.4463c0 -3.43164 -0.400391 -6.72363 -1.08496 -9.95312
l-21.9004 -102c-2.19922 -9.76855 -8.88379 -17.8408 -17.7998 -21.9004l-42.2695 15.3604c-2.10059 4.17871 -3.2832 8.89648 -3.2832 13.8887c0 2.0332 0.178711 4.02637 0.552734 5.95117l19.7002 92l-60.5 45.2998v-20.5v-0.0820312
c0 -21.1406 -13.7256 -39.085 -32.75 -45.418l-85 -28.4004c-2.47559 -0.751953 -5.09961 -1.19824 -7.7998 -1.2793l-23.9502 8.67969c-3.93066 3.44238 -6.94531 7.86426 -8.7002 12.9004c-1.06641 3.18848 -1.64453 6.59961 -1.64453 10.1455
c0 14.1172 9.14746 26.1084 21.8447 30.3545l74.0996 24.6992v53.1006v0.177734c0 25.0068 14.3955 46.624 35.4004 57.0225l41.2002 20.5996l-16.4004 5.5c-12.1133 4.03711 -22.0479 12.7227 -27.7002 24l-29.0996 58.0996
c-1.81543 4.01562 -2.82715 8.4707 -2.82715 13.1602c0 17.6611 14.3389 32 32 32c12.0889 0 22.584 -6.65723 28.0273 -16.5596l26.0996 -52.1006l63.7002 -21.1992c16.4424 -5.49023 31.8096 -13.6084 45.4004 -23.8008l111.399 -83.5
c7.78613 -5.83887 12.8271 -15.1426 12.8271 -25.6152c0 -7.18848 -2.41797 -13.8389 -6.42676 -19.1846z" />
    <glyph glyph-name="snowflakes-primary" unicode="&#xf7cf;" horiz-adv-x="640" 
d="M446 82.9502l-0.0898438 -0.150391l-15.4697 -26.7998c-2.6582 -4.64746 -7.66406 -7.78223 -13.3965 -7.78223c-2.78613 0 -5.40723 0.767578 -7.66406 2.0625l-153.38 88.5195l-0.200195 -185.8c0 -8.83105 -7.16895 -16 -16 -16h-32c-8.83008 0 -16 7.16895 -16 16
l0.100586 185.7l-153.25 -88.5c-2.26172 -1.28906 -4.87695 -2.02539 -7.66309 -2.02539c-5.73535 0 -10.7529 3.09277 -13.4375 7.72559l-15.5498 26.7998c-1.28809 2.26074 -2.02441 4.87695 -2.02441 7.66309c0 5.73438 3.0918 10.7529 7.72461 13.4365l154.46 89.2002
l-154.29 89.2002c-4.64941 2.65918 -7.78613 7.66797 -7.78613 13.4033c0 2.7832 0.764648 5.40137 2.05566 7.65625l15.5303 26.7402c2.6582 4.63477 7.65527 7.75977 13.377 7.75977c2.76953 0 5.37598 -0.758789 7.62305 -2.04004h0.0498047l153.28 -88.5195v185.8
c0 8.83105 7.16895 16 16 16h32c8.83105 0 16 -7.16895 16 -16v-185.8l153.3 88.5c2.26074 1.28809 4.87695 2.02441 7.66309 2.02441c5.73438 0 10.7529 -3.0918 13.4375 -7.72461l15.5 -26.7998c1.28809 -2.26074 2.02441 -4.87695 2.02441 -7.66309
c0 -5.73438 -3.09277 -10.7529 -7.72461 -13.4375l-154.351 -89.0996l154.49 -89.2002c4.5957 -2.63867 7.69336 -7.59473 7.69336 -13.2695c0 -2.75488 -0.755859 -5.34668 -2.0332 -7.58008z" />
    <glyph glyph-name="snowman-primary" unicode="&#xf7d0;" 
d="M510.86 295.6c0.710938 -1.78223 1.11719 -3.73047 1.11719 -5.76562c0 -6.62305 -4.14355 -12.2852 -9.97754 -14.5342l-134.73 -54.5c-1.82227 16.0576 -7.14551 31.3174 -15.0693 44.5605l56.0996 22.54c0 0.5 -0.299805 1 -0.299805 1.5v46.8994
c0.129883 8.63086 7.17383 15.6006 15.835 15.6006h0.165039h16c0.0546875 0 0.106445 -0.00390625 0.162109 -0.00390625c8.66113 0 15.708 -6.96582 15.8379 -15.5967v-29l28.2002 11.5c1.83594 0.725586 3.83691 1.14258 5.92969 1.14258
c6.67578 0 12.4111 -4.05957 14.8701 -9.84277zM103.76 289.4c-0.0517578 -0.513672 -0.155273 -1.02051 -0.299805 -1.5l56.3096 -22.6309c-7.88477 -13.2197 -13.1816 -28.4443 -15 -44.46l-134.67 54.4902c-5.8623 2.2041 -10.0254 7.87012 -10.0254 14.499
c0 2.05078 0.400391 4.00879 1.12598 5.80078l5.89941 14.5c2.45898 5.7832 8.19629 9.8252 14.8721 9.8252c2.09277 0 4.09277 -0.399414 5.92871 -1.125l28.0996 -11.5v29c0.129883 8.63086 7.17383 15.6006 15.835 15.6006h0.165039h15.96
c8.7998 0 16 -7 15.7998 -15.6006v-46.8994zM256 111.9c8.83105 0 16 -7.16992 16 -16c0 -8.83105 -7.16895 -16 -16 -16s-16 7.16895 -16 16c0 8.83008 7.16895 16 16 16zM256 175.9c8.83105 0 16 -7.16992 16 -16c0 -8.83105 -7.16895 -16 -16 -16s-16 7.16895 -16 16
c0 8.83008 7.16895 16 16 16zM256 239.9c8.83105 0 16 -7.16992 16 -16c0 -8.83105 -7.16895 -16 -16 -16s-16 7.16895 -16 16c0 8.83008 7.16895 16 16 16z" />
    <glyph glyph-name="snowmobile-primary" unicode="&#xf7d1;" horiz-adv-x="640" 
d="M465.5 32h-401.5c-23.7998 0 -39.2998 25 -28.5996 46.2002l32 64c5.21387 10.5039 16.0322 17.7002 28.5449 17.7002h0.0546875h31.0996c-12.459 11.5576 -20.2031 28.1279 -20.2031 46.4473c0 10.2705 2.45312 19.9727 6.80371 28.5527l29.7998 59.6992
c10.5059 20.9932 32.1875 35.3672 57.2412 35.3672c17.668 0 33.6729 -7.1748 45.2588 -18.7666l55.2998 -55.2002h58.7002l13.2998 17.5996l-35.5996 71.2002c-1.07129 2.14941 -1.69238 4.60352 -1.69238 7.16602c0 8.84863 7.18457 16.0322 16.0332 16.0322
c6.28613 0 11.7324 -3.62598 14.3594 -8.89844l41.5 -83.0996l159.3 -79.7002c5.22461 -2.61719 8.7998 -8.0127 8.7998 -14.25v-0.0498047v-77.5c0 -0.0117188 0.0166016 -0.0136719 0.0166016 -0.0263672c0 -5.53516 -2.82812 -10.416 -7.11621 -13.2734l-76.79 -51.2002
c-7.59277 -5.03613 -16.7461 -8 -26.5322 -8h-0.078125zM288 160l24 31.9004h-10.7002c-0.0107422 0 -0.0283203 -0.0107422 -0.0390625 -0.0107422c-17.6465 0 -33.626 7.19629 -45.1611 18.8105l-33.8994 33.8994l-25.6006 -51.0996l67 -33.5h24.4004z" />
    <glyph glyph-name="snowplow-primary" unicode="&#xf7d2;" horiz-adv-x="640" 
d="M120 72h0.120117c13.1846 -0.0332031 23.8809 -10.7471 23.8809 -23.9395c0 -13.2129 -10.7266 -23.9404 -23.9395 -23.9404s-23.9404 10.7275 -23.9404 23.9404c0 13.1924 10.6943 23.9062 23.8789 23.9395zM200 72h0.120117
c13.1846 -0.0332031 23.8809 -10.7471 23.8809 -23.9395c0 -13.2129 -10.7266 -23.9404 -23.9395 -23.9404s-23.9404 10.7275 -23.9404 23.9404c0 13.1924 10.6943 23.9062 23.8789 23.9395zM360 72h0.120117c13.1846 -0.0332031 23.8809 -10.7471 23.8809 -23.9395
c0 -13.2129 -10.7266 -23.9404 -23.9395 -23.9404s-23.9404 10.7275 -23.9404 23.9404c0 13.1924 10.6943 23.9062 23.8789 23.9395zM280 72h0.120117c13.1846 -0.0332031 23.8809 -10.7471 23.8809 -23.9395c0 -13.2129 -10.7266 -23.9404 -23.9395 -23.9404
s-23.9404 10.7275 -23.9404 23.9404c0 13.1924 10.6943 23.9062 23.8789 23.9395zM598.6 22.5996l36.7002 -36.6992c2.87402 -2.90234 4.65039 -6.89941 4.65039 -11.3027s-1.77637 -8.39551 -4.65039 -11.2979l-22.5996 -22.5996
c-2.90234 -2.87402 -6.89941 -4.65039 -11.3027 -4.65039s-8.39551 1.77637 -11.2979 4.65039l-36.6992 36.7002c-25.585 25.5664 -41.4004 60.9082 -41.4004 99.8994v18.7002h-42.7803c-17.9678 37.8799 -56.5107 64 -101.192 64h-0.0273438h-256
c-0.0478516 0 -0.193359 -0.0615234 -0.241211 -0.0615234c-17.084 0 -33.2764 -3.8457 -47.7588 -10.7188v90.7803c0 26.4922 21.5078 48 48 48h16v112c0 26.4922 21.5078 48 48 48h144.3c0.0263672 0 0.0292969 0.0351562 0.0556641 0.0351562
c19.7959 0 36.8086 -12.0107 44.1445 -29.1348l78.2998 -182.801c3.3125 -7.72266 5.18359 -16.2734 5.2002 -25.1992v-50.9004h64v18.7002c0 38.9912 15.8154 74.333 41.4004 99.8994l36.6992 36.7002c2.90234 2.87402 6.89941 4.65039 11.3027 4.65039
s8.39551 -1.77637 11.2979 -4.65039l22.5996 -22.5996c2.87402 -2.90234 4.65039 -6.89941 4.65039 -11.3027s-1.77637 -8.39551 -4.65039 -11.2979l-36.7002 -36.6992c-13.9668 -13.9668 -22.5996 -33.2676 -22.5996 -54.5605v-0.0400391v-101.6
c0 -0.0136719 -0.0107422 -0.0371094 -0.0107422 -0.0498047c0 -21.293 8.64355 -40.584 22.6104 -54.5508zM256 224h122.4l-68.6006 160h-117.8v-96z" />
    <glyph glyph-name="star-christmas-primary" unicode="&#xf7d4;" 
d="M505.25 183.35l-192.6 -48.0996l-48.1006 -192.5c-2.2002 -9 -15 -9 -17.2002 0l-48.0996 192.5l-192.5 48.0996c-9 2.2002 -9 15 0 17.2002l192.6 48.1006l48.1006 192.6c2.2002 9 15 9 17.2002 0l48.1992 -192.6l192.5 -48.1006
c8.90039 -2.2002 8.90039 -15 -0.0996094 -17.2002z" />
    <glyph glyph-name="tenge-primary" unicode="&#xf7d7;" horiz-adv-x="384" 
d="M372 416c6.62305 0 12 -5.37695 12 -12v-56c0 -6.62305 -5.37695 -12 -12 -12h-360c-6.62305 0 -12 5.37695 -12 12v56c0 6.62305 5.37695 12 12 12h360z" />
    <glyph glyph-name="toilet-primary" unicode="&#xf7d8;" horiz-adv-x="384" 
d="M352 243.3c20.2002 -10.0996 32 -22.2002 32 -35.2998c0 -67.1875 -34.4316 -126.25 -86.7998 -160.5l21.3994 -70.2002c0.894531 -2.94336 1.38086 -6.06543 1.38086 -9.2998c0 -17.6553 -14.3281 -31.9893 -31.9805 -32h-192
c-17.6523 0.0107422 -31.9756 14.3438 -31.9756 31.999c0 3.23438 0.481445 6.35742 1.37598 9.30078l21.3994 70.2002c-52.3682 34.25 -86.7998 93.3125 -86.7998 160.5c0 13.0996 11.7998 25.2002 32 35.2998v156.7h320v-156.7zM80 376v-16c0 -4.41504 3.58496 -8 8 -8h48
c4.41504 0 8 3.58496 8 8v16c0 4.41504 -3.58496 8 -8 8h-48c-4.41504 0 -8 -3.58496 -8 -8zM192 176c77.0996 0 139.6 14.2998 139.6 32s-62.5 32 -139.6 32s-139.6 -14.2998 -139.6 -32s62.5 -32 139.6 -32z" />
    <glyph glyph-name="tram-primary" unicode="&#xf7da;" 
d="M192 352c-17.6611 0 -32 14.3389 -32 32s14.3389 32 32 32s32 -14.3389 32 -32s-14.3389 -32 -32 -32zM288 384c-17.6611 0 -32 14.3389 -32 32s14.3389 32 32 32s32 -14.3389 32 -32s-14.3389 -32 -32 -32zM448 224c17.6611 0 32 -14.3389 32 -32v-224
c0 -17.6611 -14.3389 -32 -32 -32h-384c-17.6611 0 -32 14.3389 -32 32v224c0 17.6611 14.3389 32 32 32h176v83.2002l32 8.5v-91.7002h176zM176 64v96h-96v-96h96zM304 64v96h-96v-96h96zM432 64v96h-96v-96h96z" />
    <glyph glyph-name="tree-christmas-primary" unicode="&#xf7db;" horiz-adv-x="448" 
d="M439.63 -7.59961c18.9004 -21.8008 3.7998 -56.4004 -24.7998 -56.4004h-381.7c-28.5 0 -43.7002 34.5 -24.7002 56.4004l89.7705 103.6h-36c-25.6006 0 -39.5 26.2998 -23.2002 43.5l146.2 154.5l38.7998 -54l38.8301 54l146.2 -154.5
c16.2998 -17.2002 2.39941 -43.5 -23.2002 -43.5h-36zM160 136c0.0205078 0 0.0400391 -0.000976562 0.0605469 -0.000976562c13.2119 0 23.9395 10.7266 23.9395 23.9395v0.0615234c0 13.2461 -10.7539 24 -24 24s-24 -10.7539 -24 -24s10.7539 -24 24 -24zM288 8
c0.0205078 0 0.0400391 -0.000976562 0.0605469 -0.000976562c13.2119 0 23.9395 10.7266 23.9395 23.9395v0.0615234c0 13.2461 -10.7539 24 -24 24s-24 -10.7539 -24 -24s10.7539 -24 24 -24z" />
    <glyph glyph-name="tree-decorated-primary" unicode="&#xf7dc;" horiz-adv-x="448" 
d="M439.63 -7.57031c18.9004 -21.8096 3.7998 -56.4297 -24.7998 -56.3994h-381.7c-28.5 0 -43.7002 34.5 -24.7002 56.3994l89.7705 103.601h-36c-25.6006 0 -39.5 29.2002 -23.2002 48.5l95 111.5h-44.7695c-21.3008 0 -32.9004 22.5 -19.3008 37.29l134.801 146.5
c10 10.8994 28.5996 10.8994 38.5996 0l134.9 -146.53c13.5996 -14.79 2 -37.29 -19.3008 -37.29h-44.7998l94.9004 -111.5c16.2998 -19.2998 2.39941 -48.5 -23.2002 -48.5h-36zM160 136c0.0205078 0 0.0400391 -0.000976562 0.0605469 -0.000976562
c13.2119 0 23.9395 10.7266 23.9395 23.9395v0.0615234c0 13.2461 -10.7539 24 -24 24s-24 -10.7539 -24 -24s10.7539 -24 24 -24zM232 288c0 -0.0166016 -0.000976562 -0.0332031 -0.000976562 -0.0498047c0 -13.2188 10.7314 -23.9502 23.9502 -23.9502h0.0507812
c13.2461 0 24 10.7539 24 24s-10.7539 24 -24 24s-24 -10.7539 -24 -24zM288 8c0.0205078 0 0.0400391 -0.000976562 0.0605469 -0.000976562c13.2119 0 23.9395 10.7266 23.9395 23.9395v0.0615234c0 13.2461 -10.7539 24 -24 24s-24 -10.7539 -24 -24s10.7539 -24 24 -24z
" />
    <glyph glyph-name="truck-plow-primary" unicode="&#xf7de;" horiz-adv-x="640" 
d="M598.6 54.5996l36.7002 -36.6992c2.87402 -2.90234 4.65039 -6.89941 4.65039 -11.3027s-1.77637 -8.39551 -4.65039 -11.2979l-22.5996 -22.5996c-2.90234 -2.87402 -6.89941 -4.65039 -11.3027 -4.65039s-8.39551 1.77637 -11.2979 4.65039l-36.6992 36.7002
c-23.4004 23.2998 -37 54 -40.1006 86.5996h-24.0996c-16.5342 46.5811 -60.9424 79.9756 -113.163 79.9756s-96.7031 -33.3945 -113.237 -79.9756h-29.5996c-16.5361 46.584 -60.9248 80.0391 -113.149 80.0391c-48.9844 0 -91.1611 -29.3828 -109.851 -71.4688
c-6.2793 5.82227 -10.2002 14.1377 -10.2002 23.3672v0.0625v96c0 17.6611 14.3389 32 32 32h96v120c0 22.0762 17.9238 40 40 40h110.9c17.4873 -0.0195312 32.7754 -9.32617 41.1992 -23.2998l82 -136.7h45.9004c17.6611 0 32 -14.3389 32 -32v-64h32v50.7002
c0 38.9912 15.8154 74.333 41.4004 99.8994l36.6992 36.7002c2.90234 2.87402 6.89941 4.65039 11.3027 4.65039s8.39551 -1.77637 11.2979 -4.65039l22.5996 -22.5996c2.87402 -2.90234 4.65039 -6.89941 4.65039 -11.3027s-1.77637 -8.39551 -4.65039 -11.2979
l-36.7002 -36.6992c-13.9658 -13.9609 -22.5996 -33.2559 -22.5996 -54.5439v-0.0566406v-101.6c0 -0.0195312 -0.0107422 -0.0478516 -0.0107422 -0.0664062c0 -21.2881 8.64453 -40.5732 22.6104 -54.5342zM192 256h135.5l-57.5996 96h-77.9004v-96z" />
    <glyph glyph-name="wreath-primary" unicode="&#xf7e2;" horiz-adv-x="448" 
d="M448 224c0 -0.0146484 0.0488281 0 0.0488281 -0.015625c0 -16.7539 -8.61328 -31.5117 -21.6484 -40.084c5.30957 -7.71387 8.4248 -17.1348 8.4248 -27.1982c0 -6.48047 -1.28906 -12.6621 -3.625 -18.3018c-6.60059 -15.9004 -20.7002 -25.8008 -36.5 -28.5
c3.39941 -15.5 -0.100586 -32.2002 -12.1006 -44.2002c-7.99512 -7.88379 -18.8359 -12.9277 -30.7998 -13.5c-2.14551 24.4346 -22.6387 43.6875 -47.5996 43.7998c-5.30371 -0.0263672 -10.4219 -0.910156 -15.2002 -2.5l-1.09961 -0.400391l-1.10059 -0.399414
l-62.7002 -26.1006l-62.6992 26.1006l-1.10059 0.399414l-1.09961 0.400391c-4.69629 1.6123 -9.74023 2.50098 -14.9805 2.50098c-0.0732422 0 -0.146484 -0.000976562 -0.219727 -0.000976562c-0.0400391 0 -0.0791016 -0.0439453 -0.119141 -0.0439453
c-24.9941 0 -45.5078 -19.3379 -47.3809 -43.8564c-11.2002 0.800781 -22.2002 4.90039 -30.7998 13.5c-12.1006 12 -15.5 28.7002 -12.1006 44.2002c-15.7998 2.7002 -29.8994 12.7002 -36.5 28.5c-2.35742 5.64453 -3.65332 11.916 -3.65332 18.4111
c0 10.0596 3.12402 19.3955 8.4541 27.0889c-13.2021 8.5293 -21.9492 23.3154 -21.9492 40.1885c0 16.915 8.79102 31.793 22.0488 40.3115c-5.31836 7.70312 -8.41602 17.0889 -8.41602 27.1494c0 23.7266 17.332 43.4375 40.0156 47.1504
c-3.2998 15.4004 0.200195 31.9004 12.1006 43.8008c11.8994 11.8994 28.3994 15.3994 43.7998 12.0996c3.71289 22.6836 23.4717 40.0342 47.1992 40.0342c10.0596 0 19.3975 -3.11523 27.1006 -8.43457c8.54297 13.2031 23.3389 21.9482 40.2207 21.9482
s31.7373 -8.74512 40.2793 -21.9482c7.70312 5.31934 17.0889 8.41699 27.1494 8.41699c23.7266 0 43.4375 -17.333 47.1504 -40.0166c15.3008 3.2998 31.9004 -0.200195 43.8008 -12.0996c11.8994 -11.9004 15.3994 -28.4004 12.0996 -43.8008
c22.6855 -3.75879 40.0244 -23.5381 40.0244 -47.2822c0 -10.0635 -3.11133 -19.4062 -8.4248 -27.1172c13.2021 -8.51074 21.9004 -23.3145 21.9004 -40.1748v-0.0253906zM301.5 197.8c2.7002 8.60059 10.5 16.7002 10.5 26.2002s-7.7998 17.5996 -10.5 26.2002
c-2.7998 8.89941 -1.09961 20.0996 -6.2998 27.5996s-16.2002 9.40039 -23.2998 14.7998c-7.10059 5.40039 -12.2002 15.6006 -20.7002 18.5c-8.2002 2.80078 -18.1006 -2.2998 -27.2002 -2.2998s-19 5.10059 -27.2002 2.2998c-8.59961 -2.89941 -13.5 -13 -20.7002 -18.5
c-7.19922 -5.5 -18.0996 -7.39941 -23.2998 -14.7998c-5.2002 -7.39941 -3.5 -18.7002 -6.2998 -27.5996c-2.7002 -8.60059 -10.5 -16.7002 -10.5 -26.2002s7.7998 -17.5996 10.5 -26.2002c2.7998 -8.89941 1.09961 -20.0996 6.2998 -27.5996
s16.2002 -9.40039 23.2998 -14.7998c7.10059 -5.40039 12.2002 -15.6006 20.7002 -18.5c8.2002 -2.80078 18.1006 2.2998 27.2002 2.2998s19 -5.10059 27.2002 -2.2998c8.59961 2.89941 13.5 13 20.7002 18.5c7.19922 5.5 18.0996 7.39941 23.2998 14.7998
c5.2002 7.39941 3.5 18.7002 6.2998 27.5996z" />
    <glyph glyph-name="gift-secondary" unicode="&#x10f06b;" 
d="M224 128v-160h-160c-17.6611 0 -32 14.3389 -32 32v128h192zM224 288v-128h-208c-8.83105 0 -16 7.16895 -16 16v80c0 17.6611 14.3389 32 32 32h192zM480 288c17.6611 0 32 -14.3389 32 -32v-80c0 -8.83105 -7.16895 -16 -16 -16h-208v128h192zM288 -32v160h192v-128
c0 -17.6611 -14.3389 -32 -32 -32h-160z" />
    <glyph glyph-name="signature-secondary" unicode="&#x10f5b7;" horiz-adv-x="640" 
d="M639.77 239.79v-32.0996c0 -8.5 -6.69922 -15.1006 -15.1992 -15.8008c-39.4004 -3.19922 -105.4 -51 -138.4 -65.7998c-34.2998 -15.3994 -66.7002 -30 -102.3 -30c-28.2002 0 -50.2002 8.5 -65.5 25.2998c-22.7002 24.9004 -22.7998 55.3008 -20.6006 83.8008
c-56.5 -45.1006 -169 -153.601 -211.199 -195.801c-5.73535 -5.7998 -13.6953 -9.39551 -22.4883 -9.39551c-0.0263672 0 -0.0556641 0.00585938 -0.0820312 0.00585938c-27 0 -36.5 27 -29.7002 43.9004l98.2002 245.6c8 19.9004 -14.2998 38.7998 -32.7002 27.0996
l-58 -38.8994c-2.48242 -1.60352 -5.44043 -2.53418 -8.61328 -2.53418c-5.67676 0 -10.6709 2.9541 -13.4863 7.43359l-17.2002 27c-1.56348 2.47949 -2.46875 5.41602 -2.46875 8.56055c0 5.67773 2.9209 10.6777 7.36914 13.54l54.8994 36.8994
c76.5 48.7002 160.101 -26.8994 129.7 -102.8l-41.5 -103.7c105.2 101.2 144.4 124.5 169.5 126c54.4004 3.10059 43.7998 -68.0996 42.7002 -76.0996c-4.7002 -35.7002 -1.2998 -51.9004 21.2998 -51.9004c21.9004 0 47 11.3008 76.0996 24.4004
c37.4004 16.7998 111.301 68 163.101 71.5c9.06934 0.589844 16.7998 -7.11035 16.5693 -16.21z" />
    <glyph glyph-name="baby-carriage-secondary" unicode="&#x10f77d;" 
d="M96 64c35.3223 0 64 -28.6777 64 -64s-28.6777 -64 -64 -64s-64 28.6777 -64 64s28.6777 64 64 64zM352 64c35.3223 0 64 -28.6777 64 -64s-28.6777 -64 -64 -64s-64 28.6777 -64 64s28.6777 64 64 64zM90.7998 440.39c16.7998 13.4004 42.7002 8.40039 54 -9.38965
l111.2 -175h-256c0 74 35.2998 140.09 90.7998 184.39z" />
    <glyph glyph-name="bells-secondary" unicode="&#x10f77f;" horiz-adv-x="640" 
d="M117.3 328.92c25.2305 69.4004 101.75 105.21 171 80.0205c9.70898 -3.64453 18.9434 -8.44043 27.4004 -14.1709c-68.7002 -39.3398 -101.601 -123.43 -73.7002 -200.34l15.5 -42.7793c22.7998 -62.7705 11.7002 -89.2402 3.2998 -108.49l-243.3 88.8398
c-22.5 8.21973 -23.0996 38.5996 -3 48.9297c21 10.7305 58.2002 24.9707 87.4004 105.28c0.699219 2.20996 14.5996 40.6104 15.3994 42.71zM543.77 37c0.147461 -1.76367 0.254883 -3.5459 0.254883 -5.34668c0 -35.1904 -28.5693 -63.7607 -63.7598 -63.7607
c-21.5527 0 -40.6211 10.7168 -52.165 27.1074z" />
    <glyph glyph-name="blog-secondary" unicode="&#x10f781;" 
d="M511.9 145c0.0166016 -0.301758 0.0234375 -0.59375 0.0234375 -0.900391c0 -8.86035 -7.17285 -16.0586 -16.0234 -16.0996h-32.1006c-8.45801 0.0361328 -15.3779 6.66406 -15.8994 15c-7.5 129.5 -111.5 234.5 -240.9 241.5
c-8.34668 0.443359 -15 7.35938 -15 15.8164v0.0839844v31.5996c0.0410156 8.85059 7.22656 16.0254 16.0869 16.0254c0.306641 0 0.611328 -0.00878906 0.913086 -0.0253906c163.2 -8.62012 294.4 -139.82 302.9 -303zM209.3 352
c110.101 -8.51953 198.2 -96.6201 206.601 -206.7c0.0253906 -0.371094 0.0371094 -0.732422 0.0371094 -1.11035c0 -8.91699 -7.22656 -16.1611 -16.1377 -16.1895h-32.2002c-8.35059 0.0576172 -15.1992 6.51562 -15.8994 14.7002
c-6.90039 77 -68.1006 138.899 -144.9 145.2c-8.25977 0.591797 -14.7998 7.49023 -14.7998 15.8994v32.1006c0 0.00390625 -0.0146484 0.0078125 -0.0146484 0.0126953c0 8.90234 7.22754 16.1299 16.1299 16.1299c0.398438 0 0.793945 -0.0146484 1.18457 -0.0429688z" />
    <glyph glyph-name="boot-secondary" unicode="&#x10f782;" 
d="M0 0h512v-32l-32 -32h-64l-32 32l-32 -32h-64l-32 32l-32 -32h-64l-32 32l-32 -32h-64l-32 32v32zM352 368c0 -8.83105 -7.16895 -16 -16 -16h-336v80c0 8.83105 7.16895 16 16 16h320c8.83105 0 16 -7.16895 16 -16v-64z" />
    <glyph glyph-name="cash-register-secondary" unicode="&#x10f788;" 
d="M296.1 216h16c8.83105 0 16 -7.16895 16 -16v-16c0 -8.83105 -7.16895 -16 -16 -16h-16c-8.83008 0 -16 7.16895 -16 16v16c0 8.83105 7.16992 16 16 16zM248.1 88c-8.83008 0 -16 7.16895 -16 16v16c0 8.83105 7.16992 16 16 16h16c8.83105 0 16 -7.16895 16 -16v-16
c0 -8.83105 -7.16895 -16 -16 -16h-16zM232.1 200v-16c0 -8.83105 -7.16895 -16 -16 -16h-16c-8.83008 0 -16 7.16895 -16 16v16c0 8.83105 7.16992 16 16 16h16c8.83105 0 16 -7.16895 16 -16zM136.1 200v-16c0 -8.83105 -7.16895 -16 -16 -16h-16
c-8.83008 0 -16 7.16895 -16 16v16c0 8.83105 7.16992 16 16 16h16c8.83105 0 16 -7.16895 16 -16zM184.1 104c0 -8.83105 -7.16895 -16 -16 -16h-16c-8.83008 0 -16 7.16895 -16 16v16c0 8.83105 7.16992 16 16 16h16c8.83105 0 16 -7.16895 16 -16v-16zM344.1 16
c4.41602 0 8 -3.58496 8 -8v-16c0 -4.41504 -3.58398 -8 -8 -8h-176c-4.41504 0 -8 3.58496 -8 8v16c0 4.41504 3.58496 8 8 8h176zM360.1 136c8.83105 0 16 -7.16895 16 -16v-16c0 -8.83105 -7.16895 -16 -16 -16h-16c-8.83008 0 -16 7.16895 -16 16v16
c0 8.83105 7.16992 16 16 16h16zM408.1 216c8.83105 0 16 -7.16895 16 -16v-16c0 -8.83105 -7.16895 -16 -16 -16h-16c-8.83008 0 -16 7.16895 -16 16v16c0 8.83105 7.16992 16 16 16h16zM144 256v64h-96c-8.83105 0 -16 7.16895 -16 16v96c0 8.83105 7.16895 16 16 16h256
c8.83105 0 16 -7.16895 16 -16v-96.0996c0 -8.83105 -7.16895 -16 -16 -16h-96v-64zM82 364h188v40h-188v-40z" />
    <glyph glyph-name="chart-network-secondary" unicode="&#x10f78a;" horiz-adv-x="640" 
d="M64 208c35.3076 -0.0332031 63.9668 -28.6924 64 -64c0 -35.3223 -28.6777 -64 -64 -64s-64 28.6777 -64 64s28.6777 64 64 64zM152 128v32h48v-32h-48zM446.4 234.8l48 36l19.1992 -25.5996l-48 -36zM576 384c35.3076 -0.0332031 63.9668 -28.6924 64 -64
c0 -35.3223 -28.6777 -64 -64 -64s-64 28.6777 -64 64s28.6777 64 64 64z" />
    <glyph glyph-name="chimney-secondary" unicode="&#x10f78b;" 
d="M160 224v-128h-128v128h128zM32 -64v128h288v-128h-288zM352 -64v128h128v-128h-128zM192 224h288v-128h-288v128z" />
    <glyph glyph-name="compress-arrows-alt-secondary" unicode="&#x10f78c;" 
d="M507.25 417.95c2.90332 -2.90723 4.69922 -6.92383 4.69922 -11.3525c0 -4.40332 -1.77539 -8.39551 -4.64941 -11.2979l-99.2998 -99.2998l33 -31c15.0996 -15.0996 4.40039 -41 -17 -41h-112c-0.0205078 0 -0.0400391 -0.000976562 -0.0605469 -0.000976562
c-13.2119 0 -23.9395 10.7266 -23.9395 23.9395v0.0615234v112c0 21.4004 25.7998 32.0996 40.9004 17l31.0996 -33l99.25 99.3496c2.90234 2.87402 6.89941 4.65039 11.3027 4.65039s8.39453 -1.77637 11.2969 -4.65039zM200 160
c0.0205078 0 0.0400391 0.000976562 0.0605469 0.000976562c13.2119 0 23.9395 -10.7266 23.9395 -23.9395v-0.0615234v-112c0 -21.4004 -25.7998 -32.0996 -40.9004 -17l-31.0996 33l-99.2998 -99.2998c-2.90234 -2.87402 -6.89941 -4.65039 -11.3027 -4.65039
s-8.39551 1.77637 -11.2979 4.65039l-25.3994 25.3994c-2.87402 2.90234 -4.65039 6.89941 -4.65039 11.3027s1.77637 8.39551 4.65039 11.2979l99.2002 99.2998l-32.9004 31c-15.0996 15.2002 -4.40039 41 17 41h112z" />
    <glyph glyph-name="deer-secondary" unicode="&#x10f78e;" 
d="M223.9 392.2v47.7998c0 4.41504 3.58398 8 8 8h16c4.41504 0 8 -3.58496 8 -8v-47.7998c0.00488281 -7.33496 4.95996 -13.5195 11.6992 -15.4004l16.1006 -4.5l16.7998 20.9004c2.18652 2.73633 3.49414 6.2041 3.49414 9.97559
c0 0.00488281 0.00585938 0.0195312 0.00585938 0.0244141v36.7998c0 4.41504 3.58496 8 8 8h16c4.41504 0 8 -3.58496 8 -8v-36.7998v-0.0205078c0 -11.3193 -3.94043 -21.7646 -10.5 -29.9795l-8.2998 -10.2998l33.7998 -9.5l42.5996 21.2998
c7.55469 3.71289 13.8965 9.32031 18.5 16.2998l18 27.2002c1.41992 2.1582 3.86426 3.58398 6.63867 3.58398c1.65234 0 3.19043 -0.518555 4.46191 -1.38379l13.2998 -8.90039c2.1582 -1.41992 3.58398 -3.86328 3.58398 -6.6377
c0 -1.65234 -0.518555 -3.19043 -1.38379 -4.46191l-18.1006 -27.2002c-7.71582 -11.5352 -18.2168 -20.835 -30.6992 -27.1006l-12 -5.58984l-19.1904 5.33008c-2.73047 0.758789 -5.60742 1.16504 -8.57812 1.16504c-12.6572 0 -23.583 -7.33008 -28.7715 -18.0049
l-2.36035 -4.82031l-78.0996 21.8203c-20.1777 5.67676 -34.998 24.2188 -35 46.2002z" />
    <glyph glyph-name="deer-rudolph-secondary" unicode="&#x10f78f;" 
d="M191.9 392.2v47.7998c0 4.41504 3.58398 8 8 8h16c4.41504 0 8 -3.58496 8 -8v-47.7998c0.00488281 -7.33496 4.95996 -13.5195 11.6992 -15.4004l16.1006 -4.5l16.7998 20.9004c2.18652 2.73633 3.49414 6.2041 3.49414 9.97559
c0 0.00488281 0.00585938 0.0195312 0.00585938 0.0244141v36.7998c0 4.41504 3.58496 8 8 8h16c4.41504 0 8 -3.58496 8 -8v-36.7998v-0.0205078c0 -11.3193 -3.94043 -21.7646 -10.5 -29.9795l-8.2998 -10.2998l33.7998 -9.5l42.5996 21.2998
c7.55469 3.71289 13.8965 9.32031 18.5 16.2998l18 27.2002c1.41992 2.1582 3.86426 3.58398 6.63867 3.58398c1.65234 0 3.19043 -0.518555 4.46191 -1.38379l13.2998 -8.90039c2.1582 -1.41992 3.58398 -3.86328 3.58398 -6.6377
c0 -1.65234 -0.518555 -3.19043 -1.38379 -4.46191l-18.1006 -27.2002c-7.71582 -11.5352 -18.2168 -20.835 -30.6992 -27.1006l-12 -5.58984l-19.1904 5.33008c-2.73047 0.758789 -5.60742 1.16504 -8.57812 1.16504c-12.6572 0 -23.583 -7.33008 -28.7715 -18.0049
l-2.36035 -4.82031l-78.0996 21.8203c-20.1777 5.67676 -34.998 24.2188 -35 46.2002zM480 352c17.6611 0 32 -14.3291 32 -31.9902s-14.3389 -32 -32 -32h-0.299805c-1.6875 12.7686 -10.8857 23.2119 -23 26.6904l-8.56055 2.37988
c-0.0898438 0.919922 -0.139648 1.91992 -0.139648 2.91992c0 17.6611 14.3389 32 32 32z" />
    <glyph glyph-name="dreidel-secondary" unicode="&#x10f792;" horiz-adv-x="448" 
d="M443.3 366l-109 -109l72 -71.9004c6.07031 -6.0459 9.8291 -14.4102 9.8291 -23.6455s-3.75879 -17.6084 -9.8291 -23.6543l-68.7002 -68.7002l-236.399 236.45l68.7002 68.7002c6.0459 6.07031 14.4102 9.8291 23.6455 9.8291s17.6084 -3.75879 23.6543 -9.8291
l71.8994 -71.9004l109 109c2.90234 2.87402 6.89453 4.65039 11.2979 4.65039s8.40039 -1.77637 11.3027 -4.65039l22.5996 -22.5996c2.93262 -2.90137 4.75098 -6.92676 4.75098 -11.373c0 -4.44727 -1.81836 -8.47559 -4.75098 -11.377z" />
    <glyph glyph-name="dumpster-secondary" unicode="&#x10f793;" horiz-adv-x="576" 
d="M576 208v-32c0 -8.83105 -7.16895 -16 -16 -16h-28l-20 -160v-16c0 -8.83105 -7.16895 -16 -16 -16h-32c-8.83105 0 -16 7.16895 -16 16v16h-320v-16c0 -8.83105 -7.16895 -16 -16 -16h-32c-8.83105 0 -16 7.16895 -16 16v16l-20 160h-28c-8.83105 0 -16 7.16895 -16 16
v32c0 8.83105 7.16895 16 16 16h20l-4 32h512l-4 -32h20c8.83105 0 16 -7.16895 16 -16z" />
    <glyph glyph-name="dumpster-fire-secondary" unicode="&#x10f794;" horiz-adv-x="640" 
d="M288 126.4c0 -48.5 18.5996 -92.7002 48.7998 -126.4h-208.8v-16c0 -8.83105 -7.16895 -16 -16 -16h-32c-8.83105 0 -16 7.16895 -16 16v16l-20 160h-28c-8.83105 0 -16 7.16895 -16 16v32c0 8.83105 7.16895 16 16 16h20l-4 32h308.6
c-32.6992 -46.7002 -52.5996 -93.7002 -52.5996 -129.6z" />
    <glyph glyph-name="ear-muffs-secondary" unicode="&#x10f795;" horiz-adv-x="640" 
d="M83.4404 247.1c18.7998 113.801 117.5 200.9 236.5 200.9s217.8 -87.2002 236.5 -201c-5.04688 1.23828 -10.291 1.93066 -15.7002 2c-6.22168 -0.0136719 -12.2363 -0.81543 -18 -2.2998c-5.11133 2.89648 -10.709 5.2207 -16.5 6.7998
c-20.5 83.9004 -96.1006 146.5 -186.3 146.5c-90.2002 0 -165.801 -62.5996 -186.301 -146.6c-5.59473 -1.53906 -11.0205 -3.75781 -16 -6.5c-5.76367 1.4834 -11.7783 2.28613 -18 2.2998c-5.5918 -0.046875 -11.0068 -0.776367 -16.1992 -2.10059z" />
    <glyph glyph-name="ethernet-secondary" unicode="&#x10f796;" 
d="M512 240v-224c0 -8.83105 -7.16895 -16 -16 -16h-80v128h-32v-128h-64v128h-32v-128h-64v128h-32v-128h-64v128h-32v-128h-80c-8.83105 0 -16 7.16895 -16 16v224c0 8.83105 7.16895 16 16 16h48v48c0 8.83105 7.16895 16 16 16h48v48c0 8.83105 7.16895 16 16 16h224
c8.83105 0 16 -7.16895 16 -16v-48h48c8.83105 0 16 -7.16895 16 -16v-48h48c8.83105 0 16 -7.16895 16 -16z" />
    <glyph glyph-name="fireplace-secondary" unicode="&#x10f79a;" horiz-adv-x="640" 
d="M371.2 166.4c37.2998 -33.6006 64 -88.6006 64 -115.2c0 -63.5811 -51.6191 -115.2 -115.2 -115.2s-115.2 51.6191 -115.2 115.2c0 35.7998 35.9004 95.2002 86.4004 140.8c18.8984 -16.9375 35.79 -35.3115 51.0996 -55.5996
c8.96582 10.7588 18.4883 20.6436 28.9004 30zM357.8 -0.5c24.1006 17.5996 29.7002 51.7998 16.2998 78.4004c-1.59961 3.2998 -3.5 6.69922 -5.5 10.1992l-28.6992 -34.1992s-44.9004 60 -48.3008 64.0996c-23.6992 -29.7002 -35.5996 -47.0996 -35.5996 -66.7998
c0 -39.6006 28.7002 -64 64 -64c14.0986 0 27.2031 4.58594 37.7998 12.2998z" />
    <glyph glyph-name="frosty-head-secondary" unicode="&#x10f79b;" horiz-adv-x="384" 
d="M357 118.6c12.7002 -70.1992 -18.0996 -133.8 -69.5 -169.6c-11.6279 -8.14355 -25.8447 -12.9736 -41.0996 -13h-109.601c-12.0996 0 -24.3994 2.59961 -34.5996 9.09961c-46.9004 29.9004 -78.2002 82.1006 -78.2002 142
c0 0.0654297 0.0927734 0.279297 0.0927734 0.34375c0 25.957 5.85156 50.5596 16.3076 72.5566h302.899c6.24609 -12.8604 10.9639 -26.9443 13.7002 -41.4004zM130.7 85.2998c11.75 0.0107422 21.2891 9.5498 21.2998 21.2998
c0 11.7559 -9.54395 21.3008 -21.2998 21.3008s-21.2998 -9.54492 -21.2998 -21.3008s9.54395 -21.2998 21.2998 -21.2998zM192 -16c0 0 32 46.2998 32 64c0 17.6611 -14.3389 32 -32 32s-32 -14.3389 -32 -32c0 -17.7002 32 -64 32 -64zM253.3 85.2998
c11.751 0.0107422 21.2891 9.5498 21.2998 21.2998c0 11.7559 -9.54395 21.3008 -21.2998 21.3008s-21.2998 -9.54492 -21.2998 -21.3008s9.54395 -21.2998 21.2998 -21.2998z" />
    <glyph glyph-name="gifts-secondary" unicode="&#x10f79c;" horiz-adv-x="640" 
d="M27 396.28l9.2998 13c2.90332 4.05859 7.65625 6.70508 13.0215 6.70508c3.45508 0 6.66211 -1.12012 9.27832 -2.98535l32.1006 -22.7998l-11.5 30.5801c-0.680664 1.76855 -1.05273 3.68848 -1.05273 5.69531c0 6.82812 4.30273 12.6582 10.3525 14.9043l15 5.60059
c1.74316 0.651367 3.62988 1.00879 5.59961 1.00879c6.86914 0 12.7344 -4.32617 15 -10.4092l19.9004 -53.0996l19.9004 53c2.26562 6.08301 8.12988 10.4209 14.999 10.4209c1.96875 0 3.85742 -0.369141 5.60059 -1.02148l15 -5.59961
c6.08301 -2.2666 10.4209 -8.12988 10.4209 -14.999c0 -1.96973 -0.369141 -3.8584 -1.02051 -5.60156l-11.5 -30.5996l32 22.9004c2.61621 1.89258 5.83105 3.00879 9.30469 3.00879c5.3623 0 10.1143 -2.6377 12.9951 -6.70898l9.2998 -13
c1.8877 -2.61426 3 -5.82422 3 -9.29199c0 -5.3584 -2.63379 -10.1074 -6.7002 -12.9883l-30.6699 -22h-165.26l-30.6699 22c-4.0459 2.9043 -6.68359 7.64941 -6.68359 13.0059c0 3.45312 1.12012 6.6582 2.9834 9.27441zM224 192c0 17.6611 14.3389 32 32 32h28
c3.73047 -5.69531 8.12598 -10.7686 13.21 -15.2598l0.200195 -0.180664l0.200195 -0.169922l0.0595703 -0.0595703h0.0498047c11.9072 -10.1699 27.3887 -16.3301 44.2598 -16.3301h0.140625h65.8799v-88h-184v88zM456 -64v120h184v-88c0 -17.6611 -14.3389 -32 -32 -32
h-152zM608 224c17.6611 0 32 -14.3389 32 -32v-88h-184v88h65.8799c0.0117188 0 0.0595703 0.0166016 0.0722656 0.0166016c16.915 0 32.3984 6.17578 44.3174 16.3936h0.0507812l0.0693359 0.0595703l0.200195 0.169922l0.200195 0.180664
c5.0791 4.4668 9.47461 9.5127 13.21 15.1797h28zM224 56h184v-120h-152c-17.6611 0 -32 14.3389 -32 32v88z" />
    <glyph glyph-name="gingerbread-man-secondary" unicode="&#x10f79d;" horiz-adv-x="416" 
d="M322.21 144c-9.93457 0 -18.0029 -8.06055 -18.0029 -17.9951c0 -0.101562 0.000976562 -0.203125 0.00292969 -0.304688c0.00292969 -4.43652 1.58203 -8.51953 4.2002 -11.7002l58.2002 -69.7998c23.2998 -27.9004 21.5996 -72.2998 -7.10059 -94.7002
c-10.8516 -8.44336 -24.5176 -13.54 -39.3193 -13.54c-19.7559 0 -37.4355 8.96289 -49.1904 23.04l-38.29 45.9004c-5.87207 7.05762 -14.7002 11.5537 -24.5908 11.5537c-9.88965 0 -18.7373 -4.49609 -24.6094 -11.5537l-38.3096 -45.9004
c-11.7295 -14.0752 -29.3672 -23 -49.1035 -23h-0.0966797c-0.0751953 0 -0.192383 0.0244141 -0.267578 0.0244141c-14.7451 0 -28.3145 5.07617 -39.0527 13.5752c-28.6992 22.3008 -30.3994 66.8008 -7.09961 94.7002l58.21 69.7998
c2.61719 3.18066 4.19727 7.26465 4.2002 11.7002c0 10.0449 -8.15527 18.2002 -18.2002 18.2002h-29.79c-35.3438 0.0205078 -64.0342 28.6621 -64.0342 64.0107c0 3.67285 0.30957 7.27441 0.904297 10.7793c5.12988 31.4004 34.6104 53.21 66.5098 53.2197h65.8203
c7.2002 0 10.5 8.5 5.5 13.7002c-16.5332 17.1826 -26.7002 40.5527 -26.7002 66.2568v0.0332031c0 58.8799 53 105.38 114.11 94.3896c37.5 -6.7998 68.5 -37.0996 76 -74.5996c6.69922 -33.5 -4.10059 -64.6904 -24.9004 -86.29
c-1.47168 -1.42871 -2.38574 -3.42871 -2.38574 -5.63965c0 -4.33887 3.52148 -7.86035 7.85938 -7.86035h0.0263672h65.8896c31.8008 0 61.4102 -21.7002 66.5107 -53.2002c0.595703 -3.50781 0.90332 -7.05371 0.90332 -10.7295
c0 -35.3428 -28.6787 -64.04 -64.0137 -64.0703h-29.79zM176 352c8.83105 0 16 7.16895 16 16s-7.16895 16 -16 16s-16 -7.16895 -16 -16s7.16895 -16 16 -16zM208 80c8.83105 0 16 7.16895 16 16s-7.16895 16 -16 16s-16 -7.16895 -16 -16s7.16895 -16 16 -16zM208 144
c8.83105 0 16 7.16895 16 16s-7.16895 16 -16 16s-16 -7.16895 -16 -16s7.16895 -16 16 -16zM208 208c8.83105 0 16 7.16895 16 16s-7.16895 16 -16 16s-16 -7.16895 -16 -16s7.16895 -16 16 -16zM240 352c8.83105 0 16 7.16895 16 16s-7.16895 16 -16 16
s-16 -7.16895 -16 -16s7.16895 -16 16 -16z" />
    <glyph glyph-name="glass-champagne-secondary" unicode="&#x10f79e;" horiz-adv-x="256" 
d="M64.4404 227l13.5596 93h100l13.5898 -93c0.291016 -2.30371 0.44043 -4.65039 0.44043 -7.03223c0 -12.2539 -3.99121 -23.5811 -10.7002 -32.7881c-25.6396 -35.8096 -81.1504 -35.6494 -106.67 0c-6.69043 9.1875 -10.6396 20.4971 -10.6396 32.7217
c0 2.4082 0.12207 4.77148 0.419922 7.09863z" />
    <glyph glyph-name="glass-cheers-secondary" unicode="&#x10f79f;" horiz-adv-x="640" 
d="M378.84 291.95l84.21 34.9297l45.6006 -76c4.28906 -7.47852 6.74121 -16.1416 6.74121 -25.373c0 -4.13477 -0.462891 -8.18555 -1.3916 -12.0371c-9 -39.2393 -56 -59 -90.4297 -37.7197c-11.0205 6.69629 -19.2578 17.4141 -22.7705 30.1299zM126.16 213.47
c-0.911133 3.81934 -1.36426 7.83105 -1.36426 11.9268c0 9.25195 2.46094 17.9326 6.76367 25.4238l45.5703 76l84.2305 -34.9404l-22 -86c-3.5127 -12.7188 -11.7539 -23.4375 -22.7803 -30.1299c-34.4199 -21.2803 -81.4199 -1.51953 -90.4199 37.7197z" />
    <glyph glyph-name="glass-whiskey-secondary" unicode="&#x10f7a0;" 
d="M119.53 32.8496l-30.0107 191.15h333.15l-29.8096 -191.22l-0.0703125 -0.430664v-0.30957h-273.06l-0.0605469 0.400391z" />
    <glyph glyph-name="glass-whiskey-rocks-secondary" unicode="&#x10f7a1;" 
d="M119.6 32.4102l-0.109375 0.439453l-35 223.15h343.17l-34.8701 -223.25l-0.0703125 -0.429688v-0.310547h-273.06zM327.43 214.3c-5.99902 5.99414 -14.292 9.70312 -23.4346 9.70312s-17.4258 -3.70898 -23.4248 -9.70312l-46.8701 -46.8896
c-5.99414 -6.00586 -9.70215 -14.3027 -9.70215 -23.4502c0 -9.14648 3.70801 -17.4346 9.70215 -23.4404l46.8701 -46.8896c5.99805 -5.99609 14.291 -9.70703 23.4346 -9.70703s17.4268 3.71094 23.4248 9.70703l46.8701 46.8896
c5.99414 6.00586 9.70215 14.3037 9.70215 23.4502s-3.70801 17.4346 -9.70215 23.4404zM128 192v-64c0 -17.6611 14.3389 -32 32 -32h53l-1.92969 1.87012c-11.7705 11.8037 -19.0508 28.1055 -19.0508 46.0742c0 17.9697 7.28027 34.252 19.0508 46.0557l29.3994 29.4502
c-4.78613 2.875 -10.4209 4.5498 -16.4062 4.5498h-0.0634766h-64c-17.6611 0 -32 -14.3389 -32 -32z" />
    <glyph glyph-name="globe-snow-secondary" unicode="&#x10f7a3;" horiz-adv-x="448" 
d="M67.9004 64c-41.8008 40.5996 -67.9004 97.0996 -67.9004 160c0 123.7 100.3 224 224 224s224 -100.3 224 -224c0 -62.9004 -26.2002 -119.4 -67.9004 -160h-124.1v32h57.7998c14.2002 0 22 15 12.9004 24.9004l-65.5 71.0996h30.0996
c10.7002 0 16.5 11.2998 9.7002 18.7002l-67.4004 73.2002c-2.43066 2.54297 -5.85742 4.12793 -9.64941 4.12793c-3.79297 0 -7.21875 -1.58496 -9.65039 -4.12793l-67.3994 -73.2002c-6.80078 -7.5 -1 -18.7002 9.69922 -18.7002h30.1006l-65.5 -71.0996
c-9.10059 -9.90039 -1.2998 -24.9004 12.8994 -24.9004h57.9004v-32h-124.1zM336 288c-8.83105 0 -16 -7.16895 -16 -16s7.16895 -16 16 -16s16 7.16895 16 16s-7.16895 16 -16 16zM240 384c-8.83105 0 -16 -7.16895 -16 -16s7.16895 -16 16 -16s16 7.16895 16 16
s-7.16895 16 -16 16zM80 224c-8.83105 0 -16 -7.16895 -16 -16s7.16895 -16 16 -16s16 7.16895 16 16s-7.16895 16 -16 16z" />
    <glyph glyph-name="grip-lines-secondary" unicode="&#x10f7a4;" 
d="M512 144v-32c0 -8.83105 -7.16895 -16 -16 -16h-480c-8.83105 0 -16 7.16895 -16 16v32c0 8.83105 7.16895 16 16 16h480c8.83105 0 16 -7.16895 16 -16z" />
    <glyph glyph-name="hat-santa-secondary" unicode="&#x10f7a7;" horiz-adv-x="640" 
d="M452.6 96h-393.899l89.7002 215.5c25.6357 61.4209 86.29 104.634 156.959 104.634c51.9941 0 98.4463 -23.4082 129.641 -60.2334l53.0996 -62.7002c-14.4492 -9.9541 -23.9414 -26.5049 -24.1992 -45.2998c-3.21582 -3.42578 -5.95801 -7.22949 -8.2002 -11.4004
l-71.7002 19.5z" />
    <glyph glyph-name="hat-winter-secondary" unicode="&#x10f7a8;" 
d="M128 177.9l-64 -32l-7.2002 3.59961c19.6006 50.0996 55.1006 104.9 119 140.5c0.400391 -0.400391 0.600586 -0.799805 1 -1.2002c10.1768 -10.2373 24.1553 -16.7188 39.6006 -17.2002c10.3447 -9.73242 24.3066 -15.6992 39.6172 -15.6992
s29.2373 5.9668 39.582 15.6992c15.4434 0.487305 29.4199 6.96777 39.6006 17.2002c0.399414 0.400391 0.599609 0.799805 1 1.2002c63.7998 -35.5996 99.2998 -90.2998 119 -140.5l-7.2002 -3.59961l-64 32l-64 -32l-64 32l-64 -32zM496 0c8.83105 0 16 -7.16895 16 -16
v-32c0 -8.83105 -7.16895 -16 -16 -16h-480c-8.83105 0 -16 7.16895 -16 16v32c0 8.83105 7.16895 16 16 16h480z" />
    <glyph glyph-name="holly-berry-secondary" unicode="&#x10f7aa;" horiz-adv-x="448" 
d="M207.86 212.9c-0.400391 -39.8008 7.39941 -78.1006 22.8994 -112.301c0.785156 -1.78027 1.21387 -3.76074 1.21387 -5.83008c0 -7.45703 -5.65918 -13.6016 -12.9141 -14.3691c-15.5088 -1.57129 -30.8125 -4.68945 -45.2998 -9.10059
c-12.1406 -3.68848 -20.9873 -14.9561 -20.9873 -28.2959c0 -2.34082 0.272461 -4.61914 0.787109 -6.80371c3.53418 -15.0645 8.55371 -29.9316 14.7002 -43.7998c0.808594 -1.79785 1.25195 -3.80371 1.25195 -5.90039c0 -7.4209 -5.63281 -13.5361 -12.8516 -14.2998
c-35.9004 -3.40039 -71.6006 -14.9004 -104.8 -33.9004c-2.71484 -1.58789 -5.89258 -2.5127 -9.26074 -2.5127c-10.1221 0 -18.3408 8.21777 -18.3408 18.3398c0 0.0576172 0.000976562 0.115234 0.000976562 0.172852c-0.0996094 38.2002 -8 74.9004 -23 107.7
c-0.78418 1.7793 -1.21191 3.75879 -1.21191 5.82715c0 7.46875 5.67969 13.6221 12.9521 14.373c15.4951 1.57324 30.7861 4.69141 45.2598 9.09961c12.1416 3.68848 20.9873 14.957 20.9873 28.2969c0 2.34082 -0.272461 4.61816 -0.787109 6.80371
c-3.5332 15.0635 -8.55371 29.9316 -14.7002 43.7998c-0.808594 1.79688 -1.25098 3.80273 -1.25098 5.90039c0 7.41992 5.63184 13.5352 12.8516 14.2998c37.2998 3.5 74.3994 15.8994 108.699 36.1992c2.37012 1.44336 5.16895 2.29004 8.14355 2.29004
c8.64355 0 15.6602 -7.01758 15.6602 -15.6602c0 -0.110352 -0.000976562 -0.219727 -0.00292969 -0.329102zM435.06 82.4004c9.7002 -1 15.8008 -11.4004 11.5 -20.1006c-15 -32.7002 -22.7998 -69.5 -23 -107.7
c0.00195312 -0.0810547 -0.0175781 -0.146484 -0.0175781 -0.228516c0 -10.0996 -8.2002 -18.2998 -18.2998 -18.2998c-3.38672 0 -6.56055 0.921875 -9.28223 2.52832c-33.2002 19 -68.9004 30.5 -104.8 33.9004c-7.21875 0.764648 -12.8594 6.8916 -12.8594 14.3115
c0 2.09766 0.450195 4.09082 1.25879 5.88867c6.13281 13.875 11.1514 28.7422 14.7002 43.7998c0.514648 2.18457 0.788086 4.44141 0.788086 6.78223c0 13.3398 -8.84668 24.6299 -20.9883 28.3174c-4.89941 1.5 -9.89941 2.5 -14.7998 3.7002
c2.94336 6.06152 4.59766 12.9443 4.59766 20.1299c0 6.68457 -1.42871 13.0371 -3.99707 18.7705c-12.9004 28.2998 -19.7002 60.7002 -19.9004 94c0 1.7002 0.200195 3.2998 0.200195 4.89941c-0.000976562 0.0732422 0.015625 0.132812 0.015625 0.207031
c0 8.67578 7.04395 15.7197 15.7197 15.7197c2.94727 0 5.70605 -0.8125 8.06445 -2.22656c34.2998 -20.2998 71.4004 -32.7002 108.7 -36.2002c7.21875 -0.763672 12.8584 -6.8916 12.8584 -14.3115c0 -2.09766 -0.450195 -4.09082 -1.25879 -5.8877
c-6.13281 -13.876 -11.1514 -28.7422 -14.7002 -43.8008c-0.514648 -2.18457 -0.787109 -4.44043 -0.787109 -6.78125c0 -13.3398 8.84668 -24.6299 20.9873 -28.3184c14.5254 -4.31152 29.8262 -7.42383 45.2998 -9.09961z" />
    <glyph glyph-name="ice-skate-secondary" unicode="&#x10f7ac;" horiz-adv-x="576" 
d="M568 32c4.41504 0 8 -3.58496 8 -8v-24c-0.0332031 -35.3076 -28.6924 -63.9668 -64 -64h-504c-4.41504 0 -8 3.58496 -8 8v32c0 4.41504 3.58496 8 8 8h88v48h48v-48h240v48h48v-48h72c0.0205078 0 0.0400391 -0.000976562 0.0605469 -0.000976562
c13.2119 0 23.9395 10.7266 23.9395 23.9395v0.0615234v16c0 4.41504 3.58496 8 8 8h32zM264 256c-4.41504 0 -8 3.58496 -8 8v16c0 4.41504 3.58496 8 8 8h56v-32h-56zM264 320c-4.41504 0 -8 3.58496 -8 8v16c0 4.41504 3.58496 8 8 8h56v-32h-56z" />
    <glyph glyph-name="icicles-secondary" unicode="&#x10f7ad;" 
d="M511.36 410.1l-87.5 -467.699c-1.7002 -8.60059 -14 -8.60059 -15.7002 0l-66.7002 363.8l-45.7998 -172.5c-1.00195 -3.27539 -4.05078 -5.65918 -7.65137 -5.65918c-3.60156 0 -6.64648 2.38379 -7.64844 5.65918l-34.1006 133.399l-46.5 -196.899
c-1.89941 -8.2998 -13.7002 -8.2998 -15.5996 0l-44.1602 187.3l-36.4004 -124.1c-2.39941 -7.2002 -12.5996 -7.2002 -15.0996 0l-87.1396 273.399c-0.875 2.91504 -1.3457 6.00391 -1.3457 9.20215c0 17.6582 14.3281 31.9932 31.9854 31.998h448
c17.6377 -0.0273438 31.9492 -14.3555 31.9492 -32c0 -0.0166016 0.000976562 -0.0332031 0.000976562 -0.0498047c-0.00878906 -2.00586 -0.196289 -3.94434 -0.549805 -5.85059h-0.0400391z" />
    <glyph glyph-name="igloo-secondary" unicode="&#x10f7ae;" horiz-adv-x="576" 
d="M384 64v-96h-192v96c0 52.9834 43.0166 96 96 96s96 -43.0166 96 -96z" />
    <glyph glyph-name="mistletoe-secondary" unicode="&#x10f7b4;" horiz-adv-x="576" 
d="M554 53.9004c-33.2998 -33.3008 -92.7002 -27.9004 -132.7 12.0996c-26 26 -38.5996 89.5996 -44.2002 130.9l-65.1992 65.1992v-96.2998c28.3994 -32.7002 72 -89.2002 72 -127.3c0 -56.5996 -43 -102.4 -96 -102.4s-96 45.8008 -96 102.4
c0 8.59961 2.5 18.2002 6.19922 28.0996c5.67871 -1.56543 11.6416 -2.43848 17.8008 -2.5h0.250977c39.5996 0 71.75 32.1504 71.75 71.75c0 21.2842 -9.26074 40.4053 -24.001 53.5508v72.7998l-65.1006 -65.2998c-0.830078 -6.11035 -1.80957 -12.71 -3 -19.6006
c-14.9395 -6.62695 -25.3701 -21.5947 -25.3701 -38.9795c0 -10.0537 3.53809 -19.3086 9.37012 -26.6006c-6.45996 -18.7197 -14.75 -35.2598 -25.2002 -45.7197c-40 -40 -99.3994 -45.4004 -132.699 -12.0996c-33.3008 33.2998 -28 92.6992 12 132.699
c26 26 89.5996 38.6006 130.899 44.2002l99.1299 99.1006v102.1c0 8.83105 7.16992 16 16 16h16c8.83105 0 16 -7.16895 16 -16v-16.2998c-8.33789 -12.0215 -13.2764 -26.6816 -13.2998 -42.4004v-0.125977c0 -15.6885 4.94434 -30.3086 13.2998 -42.2734l99.2002 -100.101
c41.2998 -5.59961 104.9 -18.2002 130.9 -44.2002c39.9697 -40 45.3994 -99.3994 11.9697 -132.699z" />
    <glyph glyph-name="mitten-secondary" unicode="&#x10f7b5;" horiz-adv-x="448" 
d="M368 32c8.83105 0 16 -7.16895 16 -16v-64c0 -8.83105 -7.16895 -16 -16 -16h-320c-8.83105 0 -16 7.16895 -16 16v64c0 8.83105 7.16895 16 16 16h320z" />
    <glyph glyph-name="mug-hot-secondary" unicode="&#x10f7b6;" 
d="M139.3 380.7c19.5078 -19.7441 32.7725 -45.8184 36.6006 -74.7002c1.2998 -9.5 -6.5 -18 -16.3008 -18h-16.5c-8.02148 0 -14.6934 5.84766 -16 13.5c-2.75586 17.0176 -10.8008 32.3604 -22.3994 44.0996c-21.8926 22.291 -36.6543 51.7773 -40.6006 84.4004
c-0.0576172 0.560547 -0.0888672 1.11426 -0.0888672 1.69043c0 9.00195 7.30859 16.3096 16.3096 16.3096h0.0800781h16.3994c0.0537109 0.000976562 0.103516 -0.015625 0.157227 -0.015625c8.10156 0 14.8145 -5.99316 15.9434 -13.7842
c2.87891 -20.6689 12.4248 -39.3281 26.3994 -53.5zM287.9 306c1.2998 -9.5 -6.5 -18 -16.3008 -18h-16.5c-8.02148 0 -14.6934 5.84766 -16 13.5c-2.75586 17.0176 -10.8008 32.3604 -22.3994 44.0996c-21.8926 22.291 -36.6543 51.7773 -40.6006 84.4004
c-1.19922 9.5 6.5 18 16.3008 18h16.3994c0.0537109 0.000976562 0.103516 -0.015625 0.157227 -0.015625c8.10156 0 14.8145 -5.99316 15.9434 -13.7842c2.87891 -20.6689 12.4248 -39.3281 26.3994 -53.5c19.5078 -19.7441 32.7725 -45.8184 36.6006 -74.7002z" />
    <glyph glyph-name="ornament-secondary" unicode="&#x10f7b8;" horiz-adv-x="384" 
d="M384.1 128c-0.0498047 -22.4238 -4.03418 -44.0166 -11.1992 -64h-361.7c-7.20801 19.8721 -11.1396 41.3096 -11.1396 63.6582c0 22.5527 4.00488 44.3174 11.3398 64.3418h361.199c7.20898 -19.9854 11.29 -41.5918 11.5 -64zM136.58 352
c-5.43066 9.40234 -8.53906 20.3115 -8.53906 31.9414c0 35.3223 28.6768 64 64 64c35.3223 0 64 -28.6777 64 -64c0 -11.6299 -3.19043 -22.5391 -8.62109 -31.9414h-110.84zM176 384c0 -8.83105 7.16895 -16 16 -16s16 7.16895 16 16s-7.16895 16 -16 16
s-16 -7.16895 -16 -16z" />
    <glyph glyph-name="restroom-secondary" unicode="&#x10f7bd;" horiz-adv-x="640" 
d="M112 448c35.3076 -0.0332031 63.9668 -28.6924 64 -64c0 -35.3223 -28.6777 -64 -64 -64s-64 28.6777 -64 64s28.6777 64 64 64zM320 448c8.83105 0 16 -7.16895 16 -16v-480c0 -8.83105 -7.16895 -16 -16 -16h-32c-8.83105 0 -16 7.16895 -16 16v480
c0 8.83105 7.16895 16 16 16h32zM496 448c35.3076 -0.0332031 63.9668 -28.6924 64 -64c0 -35.3223 -28.6777 -64 -64 -64s-64 28.6777 -64 64s28.6777 64 64 64z" />
    <glyph glyph-name="rv-secondary" unicode="&#x10f7be;" horiz-adv-x="640" 
d="M240 0c0 -35.3223 -28.6777 -64 -64 -64s-64 28.6777 -64 64s28.6777 64 64 64s64 -28.6777 64 -64zM640 133.5v-69.5c-0.0498047 -17.6387 -14.3613 -31.9502 -32 -32h-21.5596c-13.1846 37.2822 -48.7627 64.0225 -90.5371 64.0225
c-33.4072 0 -62.7656 -17.0332 -79.9629 -42.9521v202.93l101.579 -0.200195c17.71 -0.0117188 33.7637 -7.19043 45.3906 -18.7998l58.29 -58.2998c11.5684 -11.584 18.7363 -27.5674 18.7998 -45.2002zM572 160l-43.29 43.2998
c-2.87988 2.90332 -6.87109 4.70312 -11.2793 4.70312c-0.00683594 0 -0.0146484 -0.00292969 -0.0205078 -0.00292969h-37.4805v-48h92.0703zM495.92 64c35.3223 0 64 -28.6777 64 -64s-28.6777 -64 -64 -64s-64 28.6777 -64 64s28.6777 64 64 64z" />
    <glyph glyph-name="scarf-secondary" unicode="&#x10f7c1;" 
d="M509.72 52.29c1.43164 -1.43359 2.31738 -3.41309 2.31738 -5.59668c0 -2.2334 -0.926758 -4.25293 -2.41699 -5.69336l-11.3203 -11.3096c-1.44727 -1.44434 -3.44727 -2.33789 -5.65137 -2.33789s-4.20117 0.893555 -5.64844 2.33789l-117.28 117.1l22.6104 22.5996z
M301.83 79.0898l117.39 -117.2c1.44434 -1.44727 2.33789 -3.44629 2.33789 -5.65039s-0.893555 -4.20215 -2.33789 -5.64941l-11.2998 -11.2998c-1.44727 -1.44434 -3.44727 -2.33691 -5.65137 -2.33691s-4.20117 0.892578 -5.64844 2.33691l-117.4 117.2zM166 124.29
l22.6201 -22.5996l-118.4 -118.2c-1.44727 -1.44434 -3.44629 -2.33789 -5.65137 -2.33789c-2.2041 0 -4.20117 0.893555 -5.64844 2.33789l-11.2998 11.2998c-1.44434 1.44727 -2.33789 3.44727 -2.33789 5.65137s0.893555 4.20117 2.33789 5.64844zM120.69 169.39
l22.6396 -22.5l-118.41 -118.199c-1.44727 -1.44434 -3.44727 -2.33789 -5.65137 -2.33789s-4.20117 0.893555 -5.64844 2.33789l-11.29 11.2998c-1.44434 1.44727 -2.33789 3.44629 -2.33789 5.65137c0 2.2041 0.893555 4.20117 2.33789 5.64844zM347 124.29l117.39 -117.2
c1.44434 -1.44727 2.33789 -3.44727 2.33789 -5.65137s-0.893555 -4.20117 -2.33789 -5.64844l-11.2998 -11.2998c-1.44727 -1.44141 -3.44434 -2.33301 -5.64648 -2.33301c-2.20117 0 -4.19629 0.891602 -5.64355 2.33301l-117.41 117.2zM92.9199 -39.1104l118.41 118.2
l22.5898 -22.5996l-118.39 -118.2c-1.44824 -1.44727 -3.44922 -2.34277 -5.65625 -2.34277s-4.20605 0.895508 -5.6543 2.34277l-11.2998 11.2998c-1.44434 1.44727 -2.33691 3.44727 -2.33691 5.65137s0.892578 4.20117 2.33691 5.64844z" />
    <glyph glyph-name="sd-card-secondary" unicode="&#x10f7c2;" horiz-adv-x="384" 
d="M112 288v96h48v-96h-48zM192 288v96h48v-96h-48zM272 384h48v-96h-48v96z" />
    <glyph glyph-name="shovel-snow-secondary" unicode="&#x10f7c3;" 
d="M203.72 203.64c2.87988 -2.89355 4.66016 -6.88672 4.66016 -11.2871s-1.78027 -8.38867 -4.66016 -11.2822l-79.8994 -79.9004c-0.352539 -0.392578 -0.717773 -0.757812 -1.11035 -1.11035c-2.75586 -2.25 -6.28809 -3.60254 -10.1201 -3.60254
c-8.83105 0 -16 7.16895 -16 16c0 4.40039 1.78027 8.38867 4.66016 11.2832l79.9004 79.8994l0.119141 0.129883c2.86914 2.83398 6.81543 4.58594 11.1621 4.58594c4.41406 0 8.40918 -1.80469 11.2881 -4.71582zM245.06 139.72
c2.93555 3.38574 7.27148 5.52441 12.0996 5.52441c8.83008 0 16 -7.16992 16 -16c0 -4.82812 -2.14355 -9.15918 -5.5293 -12.0938l-79.8896 -79.9004c-0.350586 -0.389648 -0.730469 -0.759766 -1.11035 -1.11035c-2.75586 -2.25 -6.28809 -3.60254 -10.1201 -3.60254
c-8.83105 0 -16 7.16895 -16 16c0 4.40039 1.78027 8.38867 4.66016 11.2832zM503.23 375.82c5.40723 -5.42773 8.75195 -12.9209 8.75195 -21.1797s-3.34473 -15.7432 -8.75195 -21.1709l-24.4707 -24.4697c-13.4814 -13.5684 -32.1064 -21.9609 -52.7266 -21.9609
c-5.06055 0 -10.0049 0.505859 -14.7832 1.4707c-6.41699 1.34473 -12.666 3.54102 -18.3799 6.39062l-99.1699 -99.1807l-33.8604 33.8701l99.1797 99.1602c-2.84277 5.71484 -5.04102 11.96 -6.39941 18.3701c-0.982422 4.82617 -1.50977 9.77441 -1.50977 14.8887
c0 20.5986 8.36914 39.2588 21.8896 52.7607l24.4697 24.4707c5.42676 5.4043 12.918 8.74707 21.1748 8.74707s15.7383 -3.34277 21.165 -8.74707zM444.94 342.82l11.79 11.79l-38.0508 38.0596l-11.79 -11.7803c-4.82227 -4.90625 -7.79688 -11.6162 -7.79688 -19.0322
c0 -1.79492 0.174805 -3.5498 0.506836 -5.24707c2.46777 -12.3086 13.3506 -21.6162 26.3799 -21.6162c7.39453 0 14.0957 2.99023 18.9609 7.82617z" />
    <glyph glyph-name="skating-secondary" unicode="&#x10f7c5;" horiz-adv-x="448" 
d="M400 0c8.83105 0 16 -7.16895 16 -16c0 -26.4922 -21.5078 -48 -48 -48h-96c-8.83105 0 -16 7.16895 -16 16s7.16895 16 16 16h96c8.83105 0 16 7.16895 16 16s7.16895 16 16 16zM117.8 -8.59961c2.90137 2.91309 6.91992 4.71289 11.3525 4.71289
c8.83887 0 16.0156 -7.17578 16.0156 -16.0156c0 -4.40723 -1.7832 -8.40039 -4.66797 -11.2979c-8.70898 -8.65527 -20.7207 -14.0078 -33.957 -14.0078c-13.2373 0 -25.2344 5.35254 -33.9434 14.0078l-67.8994 67.9004
c-3.23242 2.92773 -5.25879 7.16211 -5.25879 11.8633c0 8.83008 7.16895 16 16 16c4.7002 0 8.93066 -2.03125 11.8584 -5.26367l67.9004 -67.8994c2.89453 -2.88867 6.89355 -4.6748 11.3018 -4.6748s8.40332 1.78613 11.2979 4.6748zM400 448
c26.4922 0 48 -21.5078 48 -48s-21.5078 -48 -48 -48s-48 21.5078 -48 48s21.5078 48 48 48z" />
    <glyph glyph-name="ski-jump-secondary" unicode="&#x10f7c7;" 
d="M400 352c-26.4922 0 -48 21.5078 -48 48s21.5078 48 48 48s48 -21.5078 48 -48s-21.5078 -48 -48 -48zM510.7 257.8c0.84375 -5.09863 1.38281 -10.1836 1.38281 -15.5195c0 -35.3193 -19.2305 -66.1816 -47.7832 -82.6807l-429.2 -220.899
c-3.29004 -1.70215 -7.0459 -2.68457 -11 -2.7002c-0.0136719 0 -0.0507812 -0.0146484 -0.0644531 -0.0146484c-13.2461 0 -24 10.7539 -24 24c0 9.26855 5.26465 17.3164 12.9648 21.3145l428.2 220.4c16.0996 9.2002 25.3994 28.7998 22.0996 48.0996
c-0.220703 1.30859 -0.333984 2.60742 -0.333984 3.97754c0 13.2656 10.7695 24.0352 24.0352 24.0352c11.8945 0 21.7832 -8.65918 23.6992 -20.0127z" />
    <glyph glyph-name="ski-lift-secondary" unicode="&#x10f7c8;" 
d="M488 160c13.2461 0 24 -10.7539 24 -24c-0.129883 -34.999 -22.2344 -64.8271 -53.25 -76.4004l-330.5 -122.1c-2.82129 -1.16699 -5.93164 -1.82715 -9.17285 -1.82715c-13.2461 0 -24 10.7549 -24 24c0 10.6543 6.95703 19.6963 16.5732 22.8271l330.55 122.2
c12.7002 4.74512 21.749 16.9648 21.7998 31.2998c0.0380859 13.2285 10.7715 23.9619 24 24zM112 320c-26.4922 0 -48 21.5078 -48 48s21.5078 48 48 48s48 -21.5078 48 -48s-21.5078 -48 -48 -48zM191.6 66.5996c-29.0996 -9.69922 -33.5498 -10.5996 -46.0996 -10.5996
c-35.0195 0.0263672 -65.248 20.4004 -79.5 50l-63.6504 133c-1.49414 3.12891 -2.35742 6.67578 -2.35742 10.3721c0 13.2568 10.7627 24.0195 24.0195 24.0195c9.56055 0 17.8232 -5.59766 21.6885 -13.6914l63.5996 -133
c6.44043 -13.4668 20.1797 -22.7314 36.0918 -22.7314c4.4043 0 8.64355 0.713867 12.6084 2.03125l18.4004 6.2002c2.3877 0.795898 4.94922 1.23926 7.60352 1.23926c13.2646 0 24.0332 -10.7686 24.0332 -24.0332c0 -10.6104 -6.89062 -19.624 -16.4375 -22.8066z
M256 448v-176l-32 -8v184h32z" />
    <glyph glyph-name="skiing-secondary" unicode="&#x10f7c9;" 
d="M432 352c-26.4922 0 -48 21.5078 -48 48s21.5078 48 48 48s48 -21.5078 48 -48s-21.5078 -48 -48 -48zM505 -4.09961c4.30273 -4.33887 6.96191 -10.3174 6.96191 -16.9043s-2.65918 -12.5576 -6.96191 -16.8965c-16.1045 -16.0693 -38.3369 -26 -62.8623 -26h-0.137695
c-0.0703125 0 -0.212891 0.046875 -0.28418 0.046875c-13.1396 0 -25.6113 2.88379 -36.8154 8.05371l-391.9 202.5c-8.2793 3.78711 -13.9912 12.1172 -13.9912 21.8096c0 13.2461 10.7539 24 24 24c4.36621 0 8.46191 -1.16895 11.9912 -3.20996l391 -202.1
c14.5996 -6.7002 33 -3.40039 45.0996 8.7002c4.33008 4.35547 10.332 7.05371 16.9531 7.05371s12.6172 -2.69824 16.9473 -7.05371zM120 356.4l-26.2002 23c-1.10449 0.958984 -1.7998 2.375 -1.7998 3.95117c0 1.32031 0.491211 2.52734 1.2998 3.44824
c0.9375 1.11328 2.33691 1.81836 3.90527 1.81836c0.375977 0 0.742188 -0.0410156 1.09473 -0.118164l34.4004 -7h0.200195l11.0996 21.7002c12.4453 -6.45605 20.918 -19.4189 20.918 -34.3965c0 -0.402344 -0.00585938 -0.803711 -0.0175781 -1.2041l175.92 -87
l10.7598 -29c2.99609 -9.07422 8.60547 -16.915 16 -22.6494l-216.28 109.75c-6.78613 -5.64844 -15.5723 -9.03516 -25.083 -9.03516c-6.375 0 -12.3955 1.52734 -17.7168 4.23535z" />
    <glyph glyph-name="skiing-nordic-secondary" unicode="&#x10f7ca;" horiz-adv-x="576" 
d="M336 352c-26.4922 0 -48 21.5078 -48 48s21.5078 48 48 48s48 -21.5078 48 -48s-21.5078 -48 -48 -48zM552 32c13.2285 -0.0380859 23.9619 -10.7715 24 -24c-0.0439453 -39.7178 -32.2822 -71.9561 -72 -72h-480c-13.2461 0 -24 10.7539 -24 24s10.7539 24 24 24
h42.9004l53.9297 269.94c5.83105 -6.12793 14.0488 -9.9375 23.166 -9.9375c2.65918 0 5.24316 0.324219 7.71387 0.9375l-52.21 -260.94h302.6l25.2002 176h20.7002c0.0146484 0 0.046875 0.0136719 0.0615234 0.0136719c4.2207 0 8.25098 0.822266 11.9385 2.31641
l-25.5 -178.33h69.5c13.2285 0.0380859 23.9619 10.7715 24 24c0 13.2461 10.7539 24 24 24z" />
    <glyph glyph-name="sledding-secondary" unicode="&#x10f7cb;" 
d="M400 320c-26.4922 0 -48 21.5078 -48 48s21.5078 48 48 48s48 -21.5078 48 -48s-21.5078 -48 -48 -48zM505 27.9004c4.31348 -4.35254 6.97852 -10.3486 6.97852 -16.9541s-2.66504 -12.5938 -6.97852 -16.9463c-16.1045 -16.0703 -38.3369 -26 -62.8623 -26h-0.137695
c-0.0703125 0 -0.212891 0.0458984 -0.28418 0.0458984c-13.1396 0 -25.6113 2.88477 -36.8154 8.05371l-391.9 202.601c-7.74219 3.98828 -12.9932 12.0332 -12.9932 21.335c0 13.2559 10.7617 24.0176 24.0176 24.0176c3.95312 0 7.68457 -0.957031 10.9756 -2.65234
l391 -202.2c14.5996 -6.7002 33 -3.40039 45.0996 8.7002c4.33008 4.35547 10.332 7.05371 16.9531 7.05371s12.6172 -2.69824 16.9473 -7.05371z" />
    <glyph glyph-name="sleigh-secondary" unicode="&#x10f7cc;" horiz-adv-x="640" 
d="M639.9 36.2998c-2.2002 -39 -36.9004 -68.2998 -75.9004 -68.2998h-516c-8.83105 0 -16 7.16895 -16 16v16c0 8.83105 7.16895 16 16 16h519.3c13.5791 0.00390625 24.6025 11.0303 24.6025 24.6104c0 7.75977 -3.58301 14.6777 -9.20215 19.1895l-9.2998 7.40039
c-3.66992 2.93262 -6.02246 7.44629 -6.02246 12.5049c0 3.77734 1.3291 7.25684 3.52246 9.99512l10 12.5c2.93262 3.66992 7.44629 6.02246 12.5039 6.02246c3.77832 0 7.25684 -1.33008 9.99609 -3.52246l9.2998 -7.40039
c16.6816 -13.2021 27.3926 -33.627 27.3926 -56.5332c0 -1.5293 -0.0986328 -2.95996 -0.192383 -4.4668z" />
    <glyph glyph-name="sms-secondary" unicode="&#x10f7cd;" 
d="M256 416c141.4 0 256 -93.0996 256 -208s-114.6 -208 -256 -208c-0.12207 0 -0.370117 0.107422 -0.492188 0.107422c-37.6064 0 -73.6328 6.82129 -106.908 19.293c-24.5996 -19.6006 -74.2998 -51.4004 -140.6 -51.4004
c-0.0273438 0 -0.0488281 -0.00585938 -0.0761719 -0.00585938c-3.25 0 -6.04004 1.98438 -7.22363 4.80566c-0.431641 0.983398 -0.674805 2.07715 -0.674805 3.21875c0 2.12012 0.826172 4.04883 2.1748 5.48145c0.5 0.5 42.2998 45.4004 54.7998 95.7998
c-35.5996 35.7002 -57 81.1006 -57 130.7c0 114.9 114.6 208 256 208zM128.2 144c23.3994 0 42.5 17.2998 42.3994 38.5996c-0.0957031 11.29 -5.23535 21.375 -13.2998 28.1006l-21.8994 18.7998c-1.17871 0.882812 -1.97266 2.24805 -2.10059 3.7998
c0 3.10059 4.40039 6.60059 10.4004 6.60059h12.2998c4.41504 0 8 3.58398 8 8v16c0 4.41504 -3.58496 8 -8 8h-12.2002c-23.3994 0 -42.3994 -17.3008 -42.3994 -38.6006c0.0957031 -11.2891 5.23535 -21.374 13.2998 -28.0996l21.8994 -18.7998
c1.17871 -0.883789 1.97266 -2.24902 2.10059 -3.80078c0 -3.09961 -4.40039 -6.59961 -10.4004 -6.59961h-12.2998c-4.41504 0 -8 -3.58496 -8 -8v-16c0 -4.41504 3.58496 -8 8 -8h12.2002zM320 152v104c0 8.83105 -7.16895 16 -16 16h-16
c-0.00390625 0 0.00195312 0.015625 -0.00195312 0.015625c-6.24805 0 -11.6641 -3.58887 -14.2979 -8.81543l-17.7002 -35.4004l-17.7002 35.4004c-2.6123 5.22461 -8.00391 8.7998 -14.2373 8.7998h-0.0625h-16c-8.83105 0 -16 -7.16895 -16 -16v-104
c0 -4.41504 3.58496 -8 8 -8h16c4.41504 0 8 3.58496 8 8v68.2002l24.9004 -55.7998c1.31445 -2.62012 4.0166 -4.41992 7.14453 -4.41992c3.12891 0 5.83984 1.7998 7.15527 4.41992l24.7998 55.7998v-68.2002c0 -4.41504 3.58496 -8 8 -8h16c4.41504 0 8 3.58496 8 8z
M368.3 144c23.4004 0 42.4004 17.2998 42.2998 38.5996c-0.0957031 11.29 -5.23535 21.375 -13.2998 28.1006l-21.8994 18.7998c-1.17871 0.882812 -1.97266 2.24805 -2.10059 3.7998c0 3.10059 4.40039 6.60059 10.4004 6.60059h12.2998c4.41504 0 8 3.58398 8 8v16
c0 4.41504 -3.58496 8 -8 8h-12.2002c-23.3994 0 -42.3994 -17.3008 -42.3994 -38.6006c0.0957031 -11.2891 5.23535 -21.374 13.2998 -28.0996l21.8994 -18.7998c1.17871 -0.883789 1.97266 -2.24902 2.10059 -3.80078c0 -3.09961 -4.40039 -6.59961 -10.4004 -6.59961
h-12.2998c-4.41504 0 -8 -3.58496 -8 -8v-16c0 -4.41504 3.58496 -8 8 -8h12.2998z" />
    <glyph glyph-name="snowboarding-secondary" unicode="&#x10f7ce;" 
d="M431.85 352c-26.4912 0 -48 21.5078 -48 48s21.5088 48 48 48c26.4922 0 48 -21.5078 48 -48s-21.5078 -48 -48 -48zM493.75 -23.9004c1.44238 -3.08301 2.28223 -6.53027 2.28223 -10.1562c0 -9.61328 -5.66309 -17.9131 -13.832 -21.7432
c-11.0146 -5.22852 -23.4043 -8.2002 -36.3984 -8.2002h-0.101562c-10.415 0.0322266 -20.4414 1.91895 -29.7002 5.2998l-364.85 132.7c-21.709 7.80566 -39.3018 24.0137 -48.9004 44.7998c-1.43652 3.07812 -2.26465 6.55273 -2.26465 10.1709
c0 13.2471 10.7549 24.002 24.002 24.002c9.62793 0 17.9404 -5.68164 21.7627 -13.873c4.27246 -9.27832 12.1172 -16.5146 21.7998 -20l364.8 -132.699c4.11035 -1.51172 8.60059 -2.33008 13.2324 -2.33008c5.81543 0 11.3311 1.30176 16.2676 3.62988
c3.0791 1.43652 6.51953 2.27344 10.1387 2.27344c9.62793 0 17.9395 -5.68262 21.7617 -13.874z" />
    </font>
</defs>
</svg>
