<?xml version="1.0" standalone="no"?>
<!DOCTYPE svg PUBLIC "-//W3C//DTD SVG 1.1//EN" "http://www.w3.org/Graphics/SVG/1.1/DTD/svg11.dtd" >
<svg xmlns="http://www.w3.org/2000/svg" xmlns:xlink="http://www.w3.org/1999/xlink" version="1.1">
<metadata>
Created by FontForge 20200314 at Wed Jan 13 11:59:50 2021
 By Robert Madole
Copyright (c) Font Awesome
</metadata>
<!-- Font Awesome Pro 5.15.2 by @fontawesome - https://fontawesome.com License - https://fontawesome.com/license (Commercial License) --><defs>
<font id="FontAwesome5Pro-Regular" horiz-adv-x="512" >
  <font-face 
    font-family="Font Awesome 5 Pro Regular"
    font-weight="400"
    font-stretch="normal"
    units-per-em="512"
    panose-1="2 0 5 3 0 0 0 0 0 0"
    ascent="448"
    descent="-64"
    bbox="-0.0934275 -64.0996 640.026 448.1"
    underline-thickness="25"
    underline-position="-50"
    unicode-range="U+0020-F8FF"
  />
    <missing-glyph />
    <glyph glyph-name="heart" unicode="&#xf004;" 
d="M458.4 383.7c75.2998 -63.4004 64.0996 -166.601 10.5996 -221.3l-175.4 -178.7c-10 -10.2002 -23.2998 -15.7998 -37.5996 -15.7998c-14.2002 0 -27.5996 5.69922 -37.5996 15.8994l-175.4 178.7c-53.5996 54.7002 -64.5996 157.9 10.5996 221.2
c57.8008 48.7002 147.101 41.2998 202.4 -15c55.2998 56.2998 144.6 63.5996 202.4 15zM434.8 196.2c36.2002 36.8994 43.7998 107.7 -7.2998 150.8c-38.7002 32.5996 -98.7002 27.9004 -136.5 -10.5996l-35 -35.7002l-35 35.7002
c-37.5996 38.2998 -97.5996 43.1992 -136.5 10.5c-51.2002 -43.1006 -43.7998 -113.5 -7.2998 -150.7l175.399 -178.7c2.40039 -2.40039 4.40039 -2.40039 6.80078 0z" />
    <glyph glyph-name="star" unicode="&#xf005;" horiz-adv-x="576" 
d="M528.1 276.5c26.2002 -3.7998 36.7002 -36.0996 17.7002 -54.5996l-105.7 -103l25 -145.5c4.5 -26.3008 -23.1992 -45.9004 -46.3994 -33.7002l-130.7 68.7002l-130.7 -68.7002c-23.2002 -12.2998 -50.8994 7.39941 -46.3994 33.7002l25 145.5l-105.7 103
c-19 18.5 -8.5 50.7998 17.7002 54.5996l146.1 21.2998l65.2998 132.4c11.7998 23.8994 45.7002 23.5996 57.4004 0l65.2998 -132.4zM388.6 135.7l100.601 98l-139 20.2002l-62.2002 126l-62.2002 -126l-139 -20.2002l100.601 -98l-23.7002 -138.4l124.3 65.2998
l124.3 -65.2998z" />
    <glyph glyph-name="tags" unicode="&#xf02c;" horiz-adv-x="640" 
d="M625.941 154.177l-204.118 -204.118c-18.7461 -18.7451 -49.1387 -18.7441 -67.8818 0l-0.360352 0.360352l238.419 237.699l-260.603 259.882h48.7207c13.2461 0 25.252 -5.37012 33.9404 -14.0586l211.883 -211.883c18.7441 -18.7441 18.7441 -49.1367 0 -67.8818z
M497.941 154.177l-204.118 -204.118c-9.37207 -9.37305 -21.6572 -14.0586 -33.9414 -14.0586s-24.5684 4.68555 -33.9404 14.0586l-211.883 211.883c-8.68848 8.68848 -14.0586 20.6943 -14.0586 33.9404v204.118c0 26.5098 21.4902 48 48 48h204.118
c13.2461 0 25.2529 -5.37012 33.9404 -14.0586l211.883 -211.883c18.7441 -18.7441 18.7441 -49.1367 0 -67.8818zM464 188.118l-211.882 211.882h-204.118v-204.118l211.886 -211.878zM144 352c26.5098 0 48 -21.4902 48 -48s-21.4902 -48 -48 -48s-48 21.4902 -48 48
s21.4902 48 48 48z" />
    <glyph glyph-name="bookmark" unicode="&#xf02e;" horiz-adv-x="384" 
d="M336 448c26.5098 0 48 -21.4902 48 -48v-464l-192 112l-192 -112v464c0 26.5098 21.4902 48 48 48h288zM336 19.5703v374.434c0 3.31348 -2.68555 5.99609 -6 5.99609h-276c-3.31152 0 -6 -2.68848 -6 -6v-374.43l144 84z" />
    <glyph glyph-name="font" unicode="&#xf031;" horiz-adv-x="448" 
d="M432 16c8.83105 0 16 -7.16895 16 -16v-16c0 -8.83105 -7.16895 -16 -16 -16h-128c-8.83105 0 -16 7.16895 -16 16v16c0 8.83105 7.16895 16 16 16h35.4404l-33.3105 96h-164.26l-33.3105 -96h35.4404c8.83105 0 16 -7.16895 16 -16v-16c0 -8.83105 -7.16895 -16 -16 -16
h-128c-8.83105 0 -16 7.16895 -16 16v16c0 8.83105 7.16895 16 16 16h33.3203l135.01 389.24c2.1709 6.2627 8.12305 10.7598 15.1201 10.7598h49.0996c0.00488281 0 0.00390625 0.00390625 0.0078125 0.00390625c6.99707 0 12.9521 -4.50098 15.1221 -10.7637l135 -389.24
h33.3203zM158.53 160h130.939l-65.4697 188.69z" />
    <glyph glyph-name="bold" unicode="&#xf032;" horiz-adv-x="384" 
d="M314.52 209.22c41.1006 -21.2998 69.4805 -63.7295 69.4805 -113.22c0 -70.6455 -57.3545 -128 -128 -128h-208c-8.83105 0 -16 7.16895 -16 16v16c0 8.83105 7.16895 16 16 16h16v352h-16c-8.83105 0 -16 7.16895 -16 16v16c0 8.83105 7.16895 16 16 16h184
c0.0820312 0 0.193359 0.000976562 0.274414 0.000976562c66.0977 0 119.761 -53.6631 119.761 -119.76c0 -34.2627 -14.4189 -65.1836 -37.5156 -87.0215zM128 368v-144h88c39.7383 0 72 32.2617 72 72s-32.2617 72 -72 72h-88zM240 16c44.1533 0 80 35.8467 80 80
s-35.8467 80 -80 80h-112v-160h112z" />
    <glyph glyph-name="italic" unicode="&#xf033;" horiz-adv-x="320" 
d="M320 400v-16c0 -8.83105 -7.16895 -16 -16 -16h-67l-88 -352h59c8.83105 0 16 -7.16895 16 -16v-16c0 -8.83105 -7.16895 -16 -16 -16h-192c-8.83105 0 -16 7.16895 -16 16v16c0 8.83105 7.16895 16 16 16h67l88 352h-59c-8.83105 0 -16 7.16895 -16 16v16
c0 8.83105 7.16895 16 16 16h192c8.83105 0 16 -7.16895 16 -16z" />
    <glyph glyph-name="text-height" unicode="&#xf034;" horiz-adv-x="576" 
d="M560 80c15.6396 0 20.6396 -18 11.3096 -27.3096l-80 -80c-2.89551 -2.89453 -6.89844 -4.68555 -11.3115 -4.68555c-4.41406 0 -8.41211 1.79102 -11.3076 4.68555l-80 80c-10.0107 10 -3 27.3096 11.3096 27.3096h56v224h-56c-15.6396 0 -20.6396 18 -11.3096 27.3096
l80 80c2.89551 2.89453 6.89844 4.68555 11.3115 4.68555c4.41406 0 8.41211 -1.79102 11.3076 -4.68555l80 -80c10.0205 -10 3 -27.3096 -11.3096 -27.3096h-56v-224h56zM304 416c8.83105 0 16 -7.16895 16 -16v-80c0 -8.83105 -7.16895 -16 -16 -16h-16
c-8.83105 0 -16 7.16895 -16 16v32h-80v-336h48c8.83105 0 16 -7.16895 16 -16v-16c0 -8.83105 -7.16895 -16 -16 -16h-160c-8.83105 0 -16 7.16895 -16 16v16c0 8.83105 7.16895 16 16 16h48v336h-80v-32c0 -8.83105 -7.16895 -16 -16 -16h-16
c-8.83105 0 -16 7.16895 -16 16v80c0 8.83105 7.16895 16 16 16h288z" />
    <glyph glyph-name="text-width" unicode="&#xf035;" horiz-adv-x="448" 
d="M363.31 155.32l80 -80c2.89746 -2.89648 4.69043 -6.90137 4.69043 -11.3174s-1.79297 -8.41699 -4.69043 -11.3125l-80 -80c-10 -10.0205 -27.3096 -3 -27.3096 11.3096v56h-224v-56c0 -15.6396 -18 -20.6396 -27.3096 -11.3203l-80 80
c-2.89746 2.89648 -4.69043 6.90137 -4.69043 11.3174s1.79297 8.41699 4.69043 11.3125l80 80c10 10.0205 27.3096 3 27.3096 -11.3096v-56h224v56c0 15.6396 18 20.6396 27.3096 11.3203zM432 416c8.83105 0 16 -7.16895 16 -16v-80c0 -8.83105 -7.16895 -16 -16 -16h-16
c-8.83105 0 -16 7.16895 -16 16v32h-144v-144h32c8.83105 0 16 -7.16895 16 -16v-16c0 -8.83105 -7.16895 -16 -16 -16h-128c-8.83105 0 -16 7.16895 -16 16v16c0 8.83105 7.16895 16 16 16h32v144h-144v-32c0 -8.83105 -7.16895 -16 -16 -16h-16
c-8.83105 0 -16 7.16895 -16 16v80c0 8.83105 7.16895 16 16 16h416z" />
    <glyph glyph-name="play" unicode="&#xf04b;" horiz-adv-x="448" 
d="M424.4 233.3c31.5 -18.5 31.3994 -64.0996 0 -82.5996l-352 -208c-31.7002 -18.7998 -72.4004 3.7998 -72.4004 41.2998v416.1c0 41.8008 43.7998 58.2002 72.4004 41.3008zM48 -5.5c0 -4.59961 5.09961 -7.5 9.09961 -5.2002l334.2 197.601
c3.90039 2.2998 3.90039 8 0 10.2998l-334.2 197.5c-4 2.2998 -9.09961 -0.600586 -9.09961 -5.2002v-395z" />
    <glyph glyph-name="pause" unicode="&#xf04c;" horiz-adv-x="448" 
d="M192 369v-352c0 -26.5 -21.5 -48 -48 -48h-96c-26.5 0 -48 21.5 -48 48v352c0 26.5 21.5 48 48 48h96c26.5 0 48 -21.5 48 -48zM144 23v340c0 3.2998 -2.7002 6 -6 6h-84c-3.2998 0 -6 -2.7002 -6 -6v-340c0 -3.2998 2.7002 -6 6 -6h84c3.2998 0 6 2.7002 6 6zM448 369
v-352c0 -26.5 -21.5 -48 -48 -48h-96c-26.5 0 -48 21.5 -48 48v352c0 26.5 21.5 48 48 48h96c26.5 0 48 -21.5 48 -48zM400 23v340c0 3.2998 -2.7002 6 -6 6h-84c-3.2998 0 -6 -2.7002 -6 -6v-340c0 -3.2998 2.7002 -6 6 -6h84c3.2998 0 6 2.7002 6 6z" />
    <glyph glyph-name="stop" unicode="&#xf04d;" horiz-adv-x="448" 
d="M400 416c26.5 0 48 -21.5 48 -48v-352c0 -26.5 -21.5 -48 -48 -48h-352c-26.5 0 -48 21.5 -48 48v352c0 26.5 21.5 48 48 48h352zM394 16c3.2998 0 6 2.7002 6 6v340c0 3.2998 -2.7002 6 -6 6h-340c-3.2998 0 -6 -2.7002 -6 -6v-340c0 -3.2998 2.7002 -6 6 -6h340z" />
    <glyph glyph-name="minus-circle" unicode="&#xf056;" 
d="M140 164c-6.59961 0 -12 5.40039 -12 12v32c0 6.59961 5.40039 12 12 12h232c6.59961 0 12 -5.40039 12 -12v-32c0 -6.59961 -5.40039 -12 -12 -12h-232zM504 192c0 -137 -111 -248 -248 -248s-248 111 -248 248s111 248 248 248s248 -111 248 -248zM456 192
c0 110.5 -89.5 200 -200 200s-200 -89.5 -200 -200s89.5 -200 200 -200s200 89.5 200 200z" />
    <glyph glyph-name="calendar-alt" unicode="&#xf073;" horiz-adv-x="448" 
d="M148 160h-40c-6.59961 0 -12 5.40039 -12 12v40c0 6.59961 5.40039 12 12 12h40c6.59961 0 12 -5.40039 12 -12v-40c0 -6.59961 -5.40039 -12 -12 -12zM256 172c0 -6.59961 -5.40039 -12 -12 -12h-40c-6.59961 0 -12 5.40039 -12 12v40c0 6.59961 5.40039 12 12 12h40
c6.59961 0 12 -5.40039 12 -12v-40zM352 172c0 -6.59961 -5.40039 -12 -12 -12h-40c-6.59961 0 -12 5.40039 -12 12v40c0 6.59961 5.40039 12 12 12h40c6.59961 0 12 -5.40039 12 -12v-40zM256 76c0 -6.59961 -5.40039 -12 -12 -12h-40c-6.59961 0 -12 5.40039 -12 12v40
c0 6.59961 5.40039 12 12 12h40c6.59961 0 12 -5.40039 12 -12v-40zM160 76c0 -6.59961 -5.40039 -12 -12 -12h-40c-6.59961 0 -12 5.40039 -12 12v40c0 6.59961 5.40039 12 12 12h40c6.59961 0 12 -5.40039 12 -12v-40zM352 76c0 -6.59961 -5.40039 -12 -12 -12h-40
c-6.59961 0 -12 5.40039 -12 12v40c0 6.59961 5.40039 12 12 12h40c6.59961 0 12 -5.40039 12 -12v-40zM448 336v-352c0 -26.5 -21.5 -48 -48 -48h-352c-26.5 0 -48 21.5 -48 48v352c0 26.5 21.5 48 48 48h48v52c0 6.59961 5.40039 12 12 12h40
c6.59961 0 12 -5.40039 12 -12v-52h128v52c0 6.59961 5.40039 12 12 12h40c6.59961 0 12 -5.40039 12 -12v-52h48c26.5 0 48 -21.5 48 -48zM400 -10v298h-352v-298c0 -3.2998 2.7002 -6 6 -6h340c3.2998 0 6 2.7002 6 6z" />
    <glyph glyph-name="thumbtack" unicode="&#xf08d;" horiz-adv-x="384" 
d="M306.5 261.4c47.9004 -32.8008 77.5 -84.1006 77.5 -141.4c0 -13.2002 -10.7998 -24 -24 -24h-144v-104c0 -0.799805 -0.0996094 -1.7002 -0.400391 -2.5l-16 -48c-2.39941 -7.2998 -12.7998 -7.2998 -15.1992 0l-16 48
c-0.300781 0.799805 -0.400391 1.59961 -0.400391 2.5v104h-144c-13.2002 0 -24 10.7998 -24 24c0 57.2998 29.5996 108.6 77.5 141.4l5.7002 42.5996h-27.2002c-13.2002 0 -24 10.7998 -24 24v96c0 13.2002 10.7998 24 24 24h272c13.2002 0 24 -10.7998 24 -24v-96
c0 -13.2002 -10.7998 -24 -24 -24h-27.2002zM50.5 144h283c-8.2998 38.4004 -35.7002 70 -71.5 87.7998l-16 120.2h58v48h-224v-48h58l-16 -120.2c-35.9004 -17.7998 -63.2002 -49.2998 -71.5 -87.7998z" />
    <glyph glyph-name="phone" unicode="&#xf095;" 
d="M476.5 425.1c20.9004 -4.7998 35.5 -23.1992 35.5 -44.5996c0 -246.2 -199.7 -444.5 -444.6 -444.4c-21.4004 0 -39.8008 14.6006 -44.6006 35.5l-21.7002 94.2002c-4.89941 21.6006 6.2002 43.6006 26.6006 52.2998l101.6 43.5
c18.6006 8 40.6006 2.60059 53.4004 -13.0996l32.7002 -40c52.3994 28.5 95.5996 71.7002 124.199 124.1l-40 32.7002c-15.6992 12.7998 -21.0996 34.7998 -13.0996 53.4004l43.5 101.5c8.7002 20.3994 30.7002 31.5996 52.2998 26.5996zM69.2998 -16
c217.601 1 393.7 177.1 394.7 394.7l-90.7002 20.8994l-42.0996 -98.1992l68.0996 -55.7002c-46.3994 -99 -98.2002 -150.601 -197 -197l-55.7002 68.0996l-98.1992 -42.0996z" />
    <glyph glyph-name="certificate" unicode="&#xf0a3;" 
d="M489.199 192.073c41.1289 -40.2598 24.1494 -102.52 -31.1455 -116.634c15.4727 -54.3418 -30.458 -101.196 -85.4648 -85.5186c-14.2627 -55.9297 -77.0781 -71.5791 -116.589 -31.1709c-39.5664 -40.4639 -102.253 -25.0498 -116.589 31.1709
c-54.875 -15.6396 -100.978 31.0371 -85.4648 85.5186c-55.5127 14.1699 -72.0908 76.5537 -31.1455 116.634c-41.1289 40.2598 -24.1494 102.519 31.1455 116.634c-15.5117 54.4756 30.5146 101.181 85.4648 85.5176c9.15039 35.8896 36.9072 53.7588 66.2949 53.7578
c21.248 -0.000976562 36.7393 -8.6377 50.2939 -22.6035c39.3457 40.5361 102.41 24.4492 116.589 -31.1543c55.3457 15.7754 100.841 -31.5137 85.4648 -85.5176c55.4082 -14.1436 72.1865 -76.4609 31.1455 -116.634zM457.994 155.499l-37.3643 36.5664l37.3633 36.5654
c11.1367 10.5439 5.94336 29.2812 -8.66504 32.7754l-50.9033 12.9922l14.3496 50.3867c4.05469 14.4932 -9.61133 28.1641 -24.0996 24.1074l-50.3701 -14.3535l-12.9863 50.9199c-3.43652 14.3779 -22.3828 19.6416 -32.7646 8.66797l-36.5537 -37.6523l-36.5537 37.6523
c-10.2617 10.8457 -29.2881 5.87793 -32.7646 -8.66797l-12.9863 -50.9199l-50.3701 14.3535c-14.4941 4.05859 -28.1533 -9.61719 -24.0996 -24.1074l14.3496 -50.3867l-50.9033 -12.9922c-14.6152 -3.49512 -19.7979 -22.2363 -8.66504 -32.7754l37.3633 -36.5654
l-37.3633 -36.5664c-11.1377 -10.5439 -5.94336 -29.2812 8.66504 -32.7754l50.9033 -12.9912l-14.3496 -50.3877c-4.05469 -14.4932 9.61035 -28.1641 24.0996 -24.1074l50.3701 14.3535l12.9863 -50.9199c3.60645 -15.0889 22.501 -19.5166 32.7646 -8.66797
l36.5537 37.376l36.5547 -37.376c10.1562 -10.958 29.2393 -6.08203 32.7646 8.66797l12.9863 50.9199l50.3701 -14.3535c14.4922 -4.05762 28.1543 9.61621 24.0996 24.1074l-14.3496 50.3877l50.9033 12.9912c14.6152 3.49512 19.7979 22.2363 8.66504 32.7754z" />
    <glyph glyph-name="copy" unicode="&#xf0c5;" horiz-adv-x="448" 
d="M433.941 382.059c8.68848 -8.68848 14.0586 -20.6943 14.0586 -33.9404v-268.118c0 -26.5098 -21.4902 -48 -48 -48h-80v-48c0 -26.5098 -21.4902 -48 -48 -48h-224c-26.5098 0 -48 21.4902 -48 48v320c0 26.5098 21.4902 48 48 48h80v48c0 26.5098 21.4902 48 48 48
h172.118c13.2461 0 25.252 -5.37012 33.9404 -14.0586zM266 -16c3.31152 0 6 2.68848 6 6v42h-96c-26.5098 0 -48 21.4902 -48 48v224h-74c-3.31152 0 -6 -2.68848 -6 -6v-308c0 -3.31152 2.68848 -6 6 -6h212zM394 80c3.31152 0 6 2.68848 6 6v202h-88
c-13.2549 0 -24 10.7451 -24 24v88h-106c-3.31152 0 -6 -2.68848 -6 -6v-308c0 -3.31152 2.68848 -6 6 -6h212zM400 336v9.63184c0 1.65527 -0.670898 3.15723 -1.75684 4.24316l-48.3682 48.3682c-1.12598 1.125 -2.65234 1.75684 -4.24316 1.75684h-9.63184v-64h64z" />
    <glyph glyph-name="save" unicode="&#xf0c7;" horiz-adv-x="448" 
d="M433.941 318.059c8.68848 -8.68848 14.0586 -20.6943 14.0586 -33.9404v-268.118c0 -26.5098 -21.4902 -48 -48 -48h-352c-26.5098 0 -48 21.4902 -48 48v352c0 26.5098 21.4902 48 48 48h268.118c13.2461 0 25.252 -5.37012 33.9404 -14.0586zM272 368h-128v-80h128v80z
M394 16c3.31152 0 6 2.68848 6 6v259.632c0 1.65527 -0.670898 3.15723 -1.75684 4.24316l-78.2432 78.2432v-100.118c0 -13.2549 -10.7451 -24 -24 -24h-176c-13.2549 0 -24 10.7451 -24 24v104h-42c-3.31152 0 -6 -2.68848 -6 -6v-340c0 -3.31152 2.68848 -6 6 -6h340z
M224 216c48.5234 0 88 -39.4766 88 -88s-39.4766 -88 -88 -88s-88 39.4766 -88 88s39.4766 88 88 88zM224 88c22.0557 0 40 17.9443 40 40s-17.9443 40 -40 40s-40 -17.9443 -40 -40s17.9443 -40 40 -40z" />
    <glyph glyph-name="square" unicode="&#xf0c8;" horiz-adv-x="448" 
d="M400 416c26.5 0 48 -21.5 48 -48v-352c0 -26.5 -21.5 -48 -48 -48h-352c-26.5 0 -48 21.5 -48 48v352c0 26.5 21.5 48 48 48h352zM394 16c3.2998 0 6 2.7002 6 6v340c0 3.2998 -2.7002 6 -6 6h-340c-3.2998 0 -6 -2.7002 -6 -6v-340c0 -3.2998 2.7002 -6 6 -6h340z" />
    <glyph glyph-name="sort" unicode="&#xf0dc;" horiz-adv-x="320" 
d="M272 160c42.7002 0 64 -51.7998 34 -81.9004l-112 -112c-18.7998 -18.6992 -49.2002 -18.6992 -67.9004 0l-111.899 112c-30.2998 30.2002 -8.7002 81.9004 33.8994 81.9004h223.9zM160 0l112 112h-224zM48 224c-42.7002 0 -64 51.7998 -34 81.9004l112 112
c18.7998 18.6992 49.2002 18.6992 67.9004 0l111.899 -112c30.2998 -30.2002 8.7002 -81.9004 -33.8994 -81.9004h-223.9zM160 384l-112 -112h224z" />
    <glyph glyph-name="sort-down" unicode="&#xf0dd;" horiz-adv-x="320" 
d="M272 160c42.7002 0 64 -51.7998 34 -81.9004l-112 -112c-18.7998 -18.6992 -49.2002 -18.6992 -67.9004 0l-111.899 112c-30.2998 30.2002 -8.7002 81.9004 33.8994 81.9004h223.9zM160 0l112 112h-224z" />
    <glyph glyph-name="sort-up" unicode="&#xf0de;" horiz-adv-x="320" 
d="M48 224c-42.7002 0 -64 51.7998 -34 81.9004l112 112c18.7998 18.6992 49.2002 18.6992 67.9004 0l111.899 -112c30.2998 -30.2002 8.7002 -81.9004 -33.8994 -81.9004h-223.9zM160 384l-112 -112h224z" />
    <glyph glyph-name="envelope" unicode="&#xf0e0;" 
d="M464 384c26.5098 0 48 -21.4902 48 -48v-288c0 -26.5098 -21.4902 -48 -48 -48h-416c-26.5098 0 -48 21.4902 -48 48v288c0 26.5098 21.4902 48 48 48h416zM464 336h-416v-40.8047c22.4248 -18.2627 58.1797 -46.6602 134.587 -106.49
c16.834 -13.2422 50.2051 -45.0762 73.4131 -44.7012c23.2119 -0.371094 56.5723 31.4541 73.4131 44.7012c76.4189 59.8389 112.165 88.2305 134.587 106.49v40.8047zM48 48h416v185.601c-22.915 -18.252 -55.4189 -43.8691 -104.947 -82.6523
c-22.5439 -17.748 -60.3359 -55.1787 -103.053 -54.9473c-42.9277 -0.231445 -81.2051 37.75 -103.062 54.9551c-49.5293 38.7842 -82.0244 64.3945 -104.938 82.6455v-185.602z" />
    <glyph glyph-name="spinner" unicode="&#xf110;" 
d="M296 400c0 -22.0908 -17.9092 -40 -40 -40s-40 17.9092 -40 40s17.9092 40 40 40s40 -17.9092 40 -40zM256 24c22.0908 0 40 -17.9092 40 -40s-17.9092 -40 -40 -40s-40 17.9092 -40 40s17.9092 40 40 40zM504 192c0 -22.0908 -17.9092 -40 -40 -40s-40 17.9092 -40 40
s17.9092 40 40 40s40 -17.9092 40 -40zM88 192c0 -22.0908 -17.9092 -40 -40 -40s-40 17.9092 -40 40s17.9092 40 40 40s40 -17.9092 40 -40zM108.922 379.078c22.0908 0 40 -17.9082 40 -40c0 -22.0908 -17.9092 -40 -40 -40s-40 17.9092 -40 40s17.9092 40 40 40z
M403.078 84.9219c22.0918 0 40 -17.9092 40 -40s-17.9082 -40 -40 -40c-22.0908 0 -40 17.9092 -40 40s17.9092 40 40 40zM108.922 84.9219c22.0908 0 40 -17.9092 40 -40s-17.9092 -40 -40 -40s-40 17.9092 -40 40s17.9092 40 40 40z" />
    <glyph glyph-name="circle" unicode="&#xf111;" 
d="M256 440c137 0 248 -111 248 -248s-111 -248 -248 -248s-248 111 -248 248s111 248 248 248zM256 -8c110.5 0 200 89.5 200 200s-89.5 200 -200 200s-200 -89.5 -200 -200s89.5 -200 200 -200z" />
    <glyph glyph-name="info" unicode="&#xf129;" horiz-adv-x="256" 
d="M224 95.4111c19.1162 -11.082 32 -31.7705 32 -55.4111v-40c0 -35.29 -28.71 -64 -64 -64h-128c-35.29 0 -64 28.71 -64 64v40c0 23.6406 12.8838 44.3291 32 55.4111v33.8643c-19.1162 11.082 -32 31.7695 -32 55.4102v39.3145
c0 25.5986 15.1074 47.7363 36.874 57.9629c-10.9883 17.1777 -16.874 37.1553 -16.874 58.0371c0 59.6973 48.3135 108 108 108c59.6973 0 108 -48.3135 108 -108c0 -27.3457 -10.0947 -53.1396 -28.5215 -73.1279c10.2637 -11.3555 16.5215 -26.3975 16.5215 -42.8721
v-128.589zM128 400c-33.1367 0 -60 -26.8633 -60 -60s26.8633 -60 60 -60s60 26.8633 60 60s-26.8633 60 -60 60zM208 0v40c0 8.83594 -7.16406 16 -16 16h-16v168c0 8.83594 -7.16406 16 -16 16h-96c-8.83594 0 -16 -7.16406 -16 -16v-39.3145
c0 -8.83594 7.16406 -16 16 -16h16v-112.686h-16c-8.83594 0 -16 -7.16406 -16 -16v-40c0 -8.83594 7.16406 -16 16 -16h128c8.83594 0 16 7.16406 16 16z" />
    <glyph glyph-name="exclamation" unicode="&#xf12a;" horiz-adv-x="256" 
d="M173.854 400h-91.707c-6.875 0 -12.3447 -5.7627 -11.9844 -12.6279l11.7422 -224c0.333984 -6.375 5.60059 -11.3721 11.9834 -11.3721h68.2246c6.38379 0 11.6494 4.99707 11.9834 11.3721l11.7422 224c0.359375 6.86523 -5.11035 12.6279 -11.9844 12.6279zM128 112
c-35.29 0 -64 -28.71 -64 -64s28.71 -64 64 -64s64 28.71 64 64s-28.71 64 -64 64zM173.854 448c34.4053 0 61.7129 -28.9219 59.9199 -63.1406l-11.7422 -224c-0.674805 -13.2285 -5.67773 -25.4092 -13.5918 -35.001c19.5254 -20.168 31.5605 -47.6357 31.5605 -77.8584
c0 -61.7568 -50.2432 -112 -112 -112s-112 50.2432 -112 112c0 30.2227 12.0352 57.6904 31.5615 77.8584c-7.90234 9.58691 -12.8936 21.6914 -13.5918 35.001l-11.7422 224c-1.80078 34.3574 25.6533 63.1406 59.9189 63.1406h91.707z" />
    <glyph glyph-name="superscript" unicode="&#xf12b;" 
d="M336 384c8.83105 0 16 -7.16895 16 -16v-16c0 -8.83105 -7.16895 -16 -16 -16h-35.1602l-96 -144l96 -144h35.1602c8.83105 0 16 -7.16895 16 -16v-16c0 -8.83105 -7.16895 -16 -16 -16h-52.2803c-5.55273 0 -10.4404 2.81934 -13.3096 7.12012l-94.4102 141.61
l-94.4102 -141.61c-2.86914 -4.30078 -7.75684 -7.12012 -13.3096 -7.12012h-52.2803c-8.83105 0 -16 7.16895 -16 16v16c0 8.83105 7.16895 16 16 16h35.1602l96 144l-96 144h-35.1602c-8.83105 0 -16 7.16895 -16 16v16c0 8.83105 7.16895 16 16 16h52.2803
c5.55273 0 10.4404 -2.81934 13.3096 -7.12012l94.4102 -141.61l94.4102 141.61c2.86914 4.30078 7.75684 7.12012 13.3096 7.12012h52.2803zM496 272c8.83105 0 16 -7.16895 16 -16v-16c0 -8.83105 -7.16895 -16 -16 -16h-96c-8.83105 0 -16 7.16895 -16 16v16
c0 8.83105 7.16895 16 16 16h24v112h-16c-8.82422 0.0078125 -15.9775 7.18945 -15.9775 16.0156c0 2.57129 0.608398 5.00098 1.6875 7.1543l16 32c2.62598 5.23926 8.03613 8.8252 14.29 8.83008h32c8.83105 0 16 -7.16895 16 -16v-160h24z" />
    <glyph glyph-name="subscript" unicode="&#xf12c;" 
d="M336 384c8.83105 0 16 -7.16895 16 -16v-16c0 -8.83105 -7.16895 -16 -16 -16h-35.1602l-96 -144l96 -144h35.1602c8.83105 0 16 -7.16895 16 -16v-16c0 -8.83105 -7.16895 -16 -16 -16h-52.2803c-5.55273 0 -10.4404 2.81934 -13.3096 7.12012l-94.4102 141.61
l-94.4102 -141.61c-2.86914 -4.30078 -7.75684 -7.12012 -13.3096 -7.12012h-52.2803c-8.83105 0 -16 7.16895 -16 16v16c0 8.83105 7.16895 16 16 16h35.1602l96 144l-96 144h-35.1602c-8.83105 0 -16 7.16895 -16 16v16c0 8.83105 7.16895 16 16 16h52.2803
c5.55273 0 10.4404 -2.81934 13.3096 -7.12012l94.4102 -141.61l94.4102 141.61c2.86914 4.30078 7.75684 7.12012 13.3096 7.12012h52.2803zM496 -16c8.83105 0 16 -7.16895 16 -16v-16c0 -8.83105 -7.16895 -16 -16 -16h-96c-8.83105 0 -16 7.16895 -16 16v16
c0 8.83105 7.16895 16 16 16h24v112h-16c-8.82422 0.0078125 -15.9775 7.18945 -15.9775 16.0156c0 2.57129 0.608398 5.00098 1.6875 7.1543l16 32c2.62598 5.23926 8.03613 8.8252 14.29 8.83008h32c8.83105 0 16 -7.16895 16 -16v-160h24z" />
    <glyph glyph-name="shield" unicode="&#xf132;" 
d="M237.5 -60.2998c-107 44.5996 -221.5 181.8 -221.5 380.3c0 19.4004 11.7002 36.9004 29.5996 44.2998l192 80c5.67578 2.35449 11.96 3.6543 18.4824 3.6543c6.52148 0 12.7432 -1.2998 18.418 -3.6543l192 -80c17.7998 -7.39941 29.5 -24.8994 29.5 -44.2998
c0 -221.3 -135.9 -344.6 -221.6 -380.3c-11.8008 -4.90039 -25.1006 -4.90039 -36.9004 0zM256 400l-192 -80c0 -169.3 94.5 -295.4 192 -336c93.5996 39 192 162.2 192 336z" />
    <glyph glyph-name="calendar" unicode="&#xf133;" horiz-adv-x="448" 
d="M400 384c26.5 0 48 -21.5 48 -48v-352c0 -26.5 -21.5 -48 -48 -48h-352c-26.5 0 -48 21.5 -48 48v352c0 26.5 21.5 48 48 48h48v52c0 6.59961 5.40039 12 12 12h40c6.59961 0 12 -5.40039 12 -12v-52h128v52c0 6.59961 5.40039 12 12 12h40c6.59961 0 12 -5.40039 12 -12
v-52h48zM394 -16c3.2998 0 6 2.7002 6 6v298h-352v-298c0 -3.2998 2.7002 -6 6 -6h340z" />
    <glyph glyph-name="play-circle" unicode="&#xf144;" 
d="M371.7 210c16.3994 -9.2002 16.3994 -32.9004 0 -42l-176 -101c-15.9004 -8.7998 -35.7002 2.59961 -35.7002 21v208c0 18.5 19.9004 29.7998 35.7002 21zM504 192c0 -137 -111 -248 -248 -248s-248 111 -248 248s111 248 248 248s248 -111 248 -248zM56 192
c0 -110.5 89.5 -200 200 -200s200 89.5 200 200s-89.5 200 -200 200s-200 -89.5 -200 -200z" />
    <glyph glyph-name="ticket" unicode="&#xf145;" horiz-adv-x="576" 
d="M568 232c-22.0908 0 -40 -17.9092 -40 -40s17.9092 -40 40 -40h8v-104c0 -26.5098 -21.4902 -48 -48 -48h-480c-26.5098 0 -48 21.4902 -48 48v104h8c22.0908 0 40 17.9092 40 40s-17.9092 40 -40 40h-8v104c0 26.5098 21.4902 48 48 48h480
c26.5098 0 48 -21.4902 48 -48v-104h-8zM528 270.372v65.6279h-480v-65.6279c28.4707 -14.5898 48 -44.2432 48 -78.3721s-19.5293 -63.7822 -48 -78.3721v-65.6279h480v65.6279c-28.4697 14.5898 -48 44.2432 -48 78.3721s19.5303 63.7822 48 78.3721z" />
    <glyph glyph-name="file" unicode="&#xf15b;" horiz-adv-x="384" 
d="M369.9 350.1c9 -9 14.0996 -21.2998 14.0996 -34v-332.1c0 -26.5 -21.5 -48 -48 -48h-288c-26.5 0 -48 21.5 -48 48v416c0 26.5 21.5 48 48 48.0996h204.1c12.7002 0 24.9004 -5.09961 33.9004 -14.0996zM332.1 320l-76.0996 76.0996v-76.0996h76.0996zM48 -16h288v288
h-104c-13.2998 0 -24 10.7002 -24 24v104h-160v-416z" />
    <glyph glyph-name="file-alt" unicode="&#xf15c;" horiz-adv-x="384" 
d="M288 200v-28c0 -6.59961 -5.40039 -12 -12 -12h-168c-6.59961 0 -12 5.40039 -12 12v28c0 6.59961 5.40039 12 12 12h168c6.59961 0 12 -5.40039 12 -12zM276 128c6.59961 0 12 -5.40039 12 -12v-28c0 -6.59961 -5.40039 -12 -12 -12h-168c-6.59961 0 -12 5.40039 -12 12
v28c0 6.59961 5.40039 12 12 12h168zM384 316.1v-332.1c0 -26.5 -21.5 -48 -48 -48h-288c-26.5 0 -48 21.5 -48 48v416c0 26.5 21.5 48 48 48h204.1c12.7002 0 24.9004 -5.09961 33.9004 -14.0996l83.9004 -83.9004c9 -8.90039 14.0996 -21.2002 14.0996 -33.9004z
M256 396.1v-76.0996h76.0996zM336 -16v288h-104c-13.2998 0 -24 10.7002 -24 24v104h-160v-416h288z" />
    <glyph glyph-name="thumbs-up" unicode="&#xf164;" 
d="M466.27 161.31c4.6748 -22.6465 0.864258 -44.5371 -8.98926 -62.9893c2.95898 -23.8682 -4.02148 -48.5654 -17.3398 -66.9902c-0.954102 -55.9072 -35.8232 -95.3301 -112.94 -95.3301c-7 0 -15 0.00976562 -22.2197 0.00976562
c-102.742 0 -133.293 38.9395 -177.803 39.9404c-3.56934 -13.7764 -16.085 -23.9502 -30.9775 -23.9502h-64c-17.6729 0 -32 14.3271 -32 32v240c0 17.6729 14.3271 32 32 32h98.7598c19.1455 16.9531 46.0137 60.6533 68.7598 83.4004
c13.667 13.667 10.1533 108.6 71.7607 108.6c57.5801 0 95.2695 -31.9355 95.2695 -104.73c0 -18.4092 -3.92969 -33.7295 -8.84961 -46.5391h36.4795c48.6025 0 85.8203 -41.5654 85.8203 -85.5801c0 -19.1504 -4.95996 -34.9902 -13.7305 -49.8408zM404.52 107.48
c21.5811 20.3838 18.6992 51.0645 5.21094 65.6191c9.44922 0 22.3594 18.9102 22.2695 37.8105c-0.0898438 18.9102 -16.71 37.8203 -37.8203 37.8203h-103.989c0 37.8193 28.3594 55.3691 28.3594 94.5391c0 23.75 0 56.7305 -47.2695 56.7305
c-18.9102 -18.9102 -9.45996 -66.1797 -37.8203 -94.54c-26.5596 -26.5703 -66.1797 -97.46 -94.54 -97.46h-10.9199v-186.17c53.6113 0 100.001 -37.8203 171.64 -37.8203h37.8203c35.5117 0 60.8203 17.1201 53.1201 65.9004
c15.2002 8.16016 26.5 36.4395 13.9395 57.5703zM88 16c0 13.2549 -10.7451 24 -24 24s-24 -10.7451 -24 -24s10.7451 -24 24 -24s24 10.7451 24 24z" />
    <glyph glyph-name="thumbs-down" unicode="&#xf165;" 
d="M466.27 222.69c8.77051 -14.8506 13.7305 -30.6904 13.7305 -49.8408c0 -44.0146 -37.2178 -85.5801 -85.8203 -85.5801h-36.4795c4.91992 -12.8096 8.84961 -28.1299 8.84961 -46.5391c0 -72.7949 -37.6895 -104.73 -95.2695 -104.73
c-61.6074 0 -58.0938 94.9326 -71.7607 108.6c-22.7461 22.7471 -49.6133 66.4473 -68.7598 83.4004h-7.05176c-5.5332 -9.56152 -15.8662 -16 -27.708 -16h-64c-17.6729 0 -32 14.3271 -32 32v240c0 17.6729 14.3271 32 32 32h64c8.11328 0 15.5146 -3.02539 21.1553 -8
h10.8447c40.9971 0 73.1953 39.9902 176.78 39.9902c7.21973 0 15.2197 0.00976562 22.2197 0.00976562c77.1172 0 111.986 -39.4229 112.94 -95.3301c13.3184 -18.4248 20.2979 -43.1221 17.3398 -66.9902c9.85352 -18.4521 13.6641 -40.3428 8.98926 -62.9893zM64 152
c13.2549 0 24 10.7451 24 24s-10.7451 24 -24 24s-24 -10.7451 -24 -24s10.7451 -24 24 -24zM394.18 135.27c21.1104 0 37.7305 18.9102 37.8203 37.8203c0.0898438 18.9004 -12.8203 37.8105 -22.2695 37.8105c13.4883 14.5547 16.3701 45.2354 -5.21094 65.6191
c12.5605 21.1309 1.26074 49.4102 -13.9395 57.5703c7.7002 48.7803 -17.6084 65.9004 -53.1201 65.9004h-37.8203c-71.6387 0 -118.028 -37.8203 -171.64 -37.8203v-186.17h10.9199c28.3604 0 67.9805 -70.8896 94.54 -97.46
c28.3604 -28.3604 18.9102 -75.6299 37.8203 -94.54c47.2695 0 47.2695 32.9805 47.2695 56.7305c0 39.1699 -28.3594 56.7197 -28.3594 94.5391h103.989z" />
    <glyph glyph-name="wheelchair" unicode="&#xf193;" 
d="M500.1 48.2197l10.6504 -21.4941c2.93652 -5.92773 0.522461 -13.1152 -5.39941 -16.0664l-63.2773 -32.1641c-12.1338 -6.01367 -26.9814 -0.800781 -32.5713 11.7227l-65.0713 145.782h-160.428c-12.0303 0 -22.2031 8.9082 -23.792 20.833
c-34.4707 258.526 -31.9482 238.724 -32.2109 243.167c0 27.1523 22.5439 49.0381 49.9346 47.9619c24.7871 -0.973633 44.9795 -21.1064 46.0215 -45.8916c1.05957 -25.208 -17.335 -46.3262 -41.4053 -49.6143l9.66113 -72.4561h147.788c6.62695 0 12 -5.37305 12 -12v-24
c0 -6.62695 -5.37305 -12 -12 -12h-141.387l6.39941 -48h154.987c9.77051 0 18.1729 -5.83203 21.916 -14.2178l61.2334 -137.186l40.834 21.0293c5.94238 2.9707 13.168 0.546875 16.1162 -5.40625zM313.291 88l22.3447 -50.0586
c-28.0146 -60.1445 -89.0303 -101.941 -159.636 -101.941c-97.0469 0 -176 78.9531 -176 176c0 68.5771 39.4277 128.11 96.8018 157.143l6.88379 -51.5869c-33.6025 -23.0928 -55.6855 -61.791 -55.6855 -105.556c0 -70.5791 57.4209 -128 128 -128
c62.377 0 114.467 44.8535 125.733 104h11.5576z" />
    <glyph glyph-name="space-shuttle" unicode="&#xf197;" horiz-adv-x="640" 
d="M456 280c96 0 184 -37 184 -88c0 -54.5 -88 -88 -184 -88c-208 0 -188.971 -136 -360 -136c-44.6729 0 -66.4004 24.3984 -66.4004 64v56c-21.1875 0 -29.5996 11.166 -29.5996 24v48c0 13.4316 9.05566 24 29.5996 24v16c-21.1875 0 -29.5996 11.166 -29.5996 24v48
c0 13.4316 9.05566 24 29.5996 24v56c0 39.6104 21.7354 64 66.4004 64c170.989 0 152 -136 360 -136zM115.417 368h-19.417v-72c16.8447 0 34.001 -6.49707 48 -16h144c-48 24 -106.723 88 -172.583 88zM115.417 16c75.0957 0 124.583 64 172.583 88h-144
c-13.999 -9.50293 -31.1553 -16 -48 -16v-72h19.417zM456 144c39.8877 0 76.7275 3.77832 103.734 16c0.0898438 0.0410156 0.0898438 63.959 0 64c-27.0068 12.2217 -63.8467 16 -103.734 16h-287.214c9.84277 -30.6846 9.39551 -66.707 0 -96h287.214zM480.242 155.429
c-4.41504 0 -8 3.58496 -8 8v57.1436c0 4.41504 3.58496 8 8 8c42.3838 -0.000976562 42.3027 -73.1436 0 -73.1436z" />
    <glyph glyph-name="language" unicode="&#xf1ab;" horiz-adv-x="640" 
d="M160.3 244.2c0 0 4.2998 -20.9004 7.90039 -33l10.7002 -37.2998h-37.9004l11 37.2998c3.5 12.0996 7.7998 33 7.7998 33h0.5zM616 352c13.2998 0 24 -10.7002 24 -24v-272c0 -13.2998 -10.7002 -24 -24 -24h-592c-13.2998 0 -24 10.7002 -24 24v272
c0 13.2998 10.7002 24 24 24h592zM233.2 96c8.2002 0 14 8.09961 11.3994 15.9004l-57.0996 168c-1.7002 4.7998 -6.2998 8.09961 -11.4004 8.09961h-32.1992c-5.2002 0 -9.7002 -3.2002 -11.4004 -8.09961l-57.0996 -168
c-2.60059 -7.80078 3.19922 -15.9004 11.3994 -15.9004h22.5c5.2998 0 10 3.59961 11.5 8.7002l9.10059 31.5996h59.8994l9.2998 -31.7002c1.46777 -4.96582 6.0625 -8.5957 11.5 -8.59961h22.6006zM600 72v240h-280v-240h280zM372 220c-6.59961 0 -12 5.40039 -12 12.0996
v16c0 6.60059 5.40039 12 12 12h64v16c0 6.60059 5.40039 12 12 12h16c6.59961 0 12 -5.39941 12 -12v-16h64c6.59961 0 12 -5.39941 12 -12v-16c0 -6.59961 -5.40039 -12 -12 -12h-13.7002c-7.2002 -20.2998 -19.7002 -41.3994 -36.7998 -62
c-1.40039 -1.69922 -2.7998 -3.2998 -4.2998 -5c8.7998 -7.7998 18 -14.8994 27.2002 -20.8994c5.2998 -3.5 6.89941 -10.5 3.7998 -16l-8 -13.9004c-3.40039 -6 -11.2002 -7.7998 -17 -4.09961c-12.2998 8 -23.9004 17 -34.6006 26.5996
c-11.3994 -9.7998 -23.5 -18.8994 -36 -26.7998c-5.7998 -3.7002 -13.3994 -1.7002 -16.7998 4.2002l-7.89941 13.8994c-3.2002 5.5 -1.5 12.6006 3.89941 16c10.1006 6.40039 19.7002 13.5 28.7002 21.2002c-9.09961 10.5 -17 20.9004 -23.5 30.6006
c-3.7998 5.69922 -2.09961 13.5 3.7998 17l13.7002 8.19922c5.5 3.30078 12.5996 1.7002 16.0996 -3.59961c5.5 -8.2002 11.7002 -16.2002 18.3008 -24c10.7998 12.5996 19.5996 25.7002 25.8994 38.5h-110.8z" />
    <glyph glyph-name="file-pdf" unicode="&#xf1c1;" horiz-adv-x="384" 
d="M369.9 350.1c9 -9 14.0996 -21.2998 14.0996 -34v-332.1c0 -26.5 -21.5 -48 -48 -48h-288c-26.5 0 -48 21.5 -48 48v416c0 26.5 21.5 48 48 48.0996h204.1c12.7002 0 24.9004 -5.09961 33.9004 -14.0996zM332.1 320l-76.0996 76.0996v-76.0996h76.0996zM48 -16h288v288
h-104c-13.2998 0 -24 10.7002 -24 24v104h-160v-416zM298.2 127.7c10.5 -10.5 8 -38.7002 -17.5 -38.7002c-14.7998 0 -36.9004 6.7998 -55.7998 17c-21.6006 -3.59961 -46 -12.7002 -68.4004 -20.0996c-50.0996 -86.4004 -79.4004 -47 -76.0996 -31.2002
c4 20 31 35.8994 51 46.2002c10.5 18.3994 25.3994 50.5 35.3994 74.3994c-7.39941 28.6006 -11.3994 51 -7 67.1006c4.7998 17.6992 38.4004 20.2998 42.6006 -5.90039c4.69922 -15.4004 -1.5 -39.9004 -5.40039 -56c8.09961 -21.2998 19.5996 -35.7998 36.7998 -46.2998
c17.4004 2.2002 52.2002 5.5 64.4004 -6.5zM100.1 49.9004c0 -0.700195 11.4004 4.69922 30.4004 35c-5.90039 -5.5 -25.2998 -21.3008 -30.4004 -35zM181.7 240.5c-2.5 0 -2.60059 -26.9004 1.7998 -40.7998c4.90039 8.7002 5.59961 40.7998 -1.7998 40.7998zM157.3 103.9
c15.9004 6.09961 34 14.8994 54.7998 19.1992c-11.1992 8.30078 -21.7998 20.4004 -30.0996 35.5c-6.7002 -17.6992 -15 -37.7998 -24.7002 -54.6992zM288.9 108.9c3.59961 2.39941 -2.2002 10.3994 -37.3008 7.7998c32.3008 -13.7998 37.3008 -7.7998 37.3008 -7.7998z" />
    <glyph glyph-name="file-word" unicode="&#xf1c2;" horiz-adv-x="384" 
d="M369.9 350.1c9 -9 14.0996 -21.2998 14.0996 -34v-332.1c0 -26.5 -21.5 -48 -48 -48h-288c-26.5 0 -48 21.5 -48 48v416c0 26.5 21.5 48 48 48.0996h204.1c12.7002 0 24.9004 -5.09961 33.9004 -14.0996zM332.1 320l-76.0996 76.0996v-76.0996h76.0996zM48 -16h288v288
h-104c-13.2998 0 -24 10.7002 -24 24v104h-160v-416zM268.1 192v0.200195h15.8008c7.7998 0 13.5 -7.2998 11.5996 -14.9004c-4.2998 -17 -13.7002 -54.0996 -34.5 -136c-1.2998 -5.39941 -6.09961 -9.09961 -11.5996 -9.09961h-24.7002
c-5.5 0 -10.2998 3.7998 -11.6006 9.09961c-5.2998 20.9004 -17.7998 71 -17.8994 71.4004l-2.90039 17.2998c-0.5 -5.2998 -1.5 -11.0996 -3 -17.2998l-17.8994 -71.4004c-1.30078 -5.39941 -6.10059 -9.09961 -11.6006 -9.09961h-25.2002
c-5.59961 0 -10.3994 3.7002 -11.6992 9.09961c-6.5 26.5 -25.2002 103.4 -33.2002 136c-1.7998 7.5 3.89941 14.7998 11.7002 14.7998h16.7998c5.7998 0 10.7002 -4.09961 11.7998 -9.69922c5 -25.7002 18.4004 -93.8008 19.0996 -99
c0.300781 -1.7002 0.400391 -3.10059 0.5 -4.2002c0.800781 7.5 0.400391 4.7002 24.8008 103.7c1.39941 5.2998 6.19922 9.09961 11.6992 9.09961h13.3008c5.59961 0 10.3994 -3.7998 11.6992 -9.2002c23.9004 -99.7002 22.8008 -94.3994 23.6006 -99.5
c0.299805 -1.7002 0.5 -3.09961 0.700195 -4.2998c0.599609 8.09961 0.399414 5.7998 21 103.5c1.09961 5.5 6 9.5 11.6992 9.5z" />
    <glyph glyph-name="file-excel" unicode="&#xf1c3;" horiz-adv-x="384" 
d="M369.9 350.1c9 -9 14.0996 -21.2998 14.0996 -34v-332.1c0 -26.5 -21.5 -48 -48 -48h-288c-26.5 0 -48 21.5 -48 48v416c0 26.5 21.5 48 48 48.0996h204.1c12.7002 0 24.9004 -5.09961 33.9004 -14.0996zM332.1 320l-76.0996 76.0996v-76.0996h76.0996zM48 -16h288v288
h-104c-13.2998 0 -24 10.7002 -24 24v104h-160v-416zM260 224c9.2002 0 15 -10 10.2998 -18c-16 -27.5 -45.5996 -76.9004 -46.2998 -78l46.4004 -78c4.59961 -8 -1.10059 -18 -10.4004 -18h-28.7998c-4.40039 0 -8.5 2.40039 -10.6006 6.2998
c-22.6992 41.7998 -13.6992 27.5 -28.5996 57.7002c-5.59961 -12.7002 -6.90039 -17.7002 -28.5996 -57.7002c-2.10059 -3.89941 -6.10059 -6.2998 -10.5 -6.2998h-28.9004c-9.2998 0 -15.0996 10 -10.4004 18l46.3008 78l-46.3008 78c-4.59961 8 1.10059 18 10.4004 18
h28.9004c4.39941 0 8.5 -2.40039 10.5996 -6.2998c21.7002 -40.4004 14.7002 -28.6006 28.5996 -57.7002c6.40039 15.2998 10.6006 24.5996 28.6006 57.7002c2.09961 3.89941 6.09961 6.2998 10.5 6.2998h28.7998z" />
    <glyph glyph-name="file-powerpoint" unicode="&#xf1c4;" horiz-adv-x="384" 
d="M369.9 350.1c9 -9 14.0996 -21.2998 14.0996 -34v-332.1c0 -26.5 -21.5 -48 -48 -48h-288c-26.5 0 -48 21.5 -48 48v416c0 26.5 21.5 48 48 48.0996h204.1c12.7002 0 24.9004 -5.09961 33.9004 -14.0996zM332.1 320l-76.0996 76.0996v-76.0996h76.0996zM48 -16h288v288
h-104c-13.2998 0 -24 10.7002 -24 24v104h-160v-416zM120 44v168c0 6.59961 5.40039 12 12 12h69.2002c36.7002 0 62.7998 -27 62.7998 -66.2998c0 -74.2998 -68.7002 -66.5 -95.5 -66.5v-47.2002c0 -6.59961 -5.40039 -12 -12 -12h-24.5c-6.59961 0 -12 5.40039 -12 12z
M168.5 131.4h23c7.90039 0 13.9004 2.39941 18.0996 7.19922c8.5 9.80078 8.40039 28.5 0.100586 37.8008c-4.10059 4.59961 -9.90039 7 -17.4004 7h-23.8994v-52h0.0996094z" />
    <glyph glyph-name="file-image" unicode="&#xf1c5;" horiz-adv-x="384" 
d="M369.9 350.1c9 -9 14.0996 -21.2998 14.0996 -34v-332.1c0 -26.5 -21.5 -48 -48 -48h-288c-26.5 0 -48 21.5 -48 48v416c0 26.5 21.5 48 48 48.0996h204.1c12.7002 0 24.9004 -5.09961 33.9004 -14.0996zM332.1 320l-76.0996 76.0996v-76.0996h76.0996zM48 -16h288v288
h-104c-13.2998 0 -24 10.7002 -24 24v104h-160v-416zM80 32v64l39.5 39.5c4.7002 4.7002 12.2998 4.7002 17 0l39.5 -39.5l87.5 87.5c4.7002 4.7002 12.2998 4.7002 17 0l23.5 -23.5v-128h-224zM128 272c26.5 0 48 -21.5 48 -48s-21.5 -48 -48 -48s-48 21.5 -48 48
s21.5 48 48 48z" />
    <glyph glyph-name="file-archive" unicode="&#xf1c6;" horiz-adv-x="384" 
d="M128.3 288h32v-32h-32v32zM192.3 384v-32h-32v32h32zM128.3 352h32v-32h-32v32zM192.3 320v-32h-32v32h32zM369.9 350.1c9 -9 14.0996 -21.2998 14.0996 -34v-332.1c0 -26.5 -21.5 -48 -48 -48h-288c-26.5 0 -48 21.5 -48 48v416c0 26.5 21.5 48 48 48.0996h204.1
c12.7002 0 24.9004 -5.09961 33.9004 -14.0996zM256 396.1v-76.0996h76.0996zM336 -16v288h-104c-13.2998 0 -24 10.7002 -24 24v104h-48.2998v-16h-32v16h-79.7002v-416h288zM194.2 182.3l17.2998 -87.7002c6.40039 -32.3994 -18.4004 -62.5996 -51.5 -62.5996
c-33.2002 0 -58 30.4004 -51.4004 62.9004l19.7002 97.0996v32h32v-32h22.1006c5.7998 0 10.6992 -4.09961 11.7998 -9.7002zM160.3 57.9004c17.9004 0 32.4004 12.0996 32.4004 27c0 14.8994 -14.5 27 -32.4004 27c-17.8994 0 -32.3994 -12.1006 -32.3994 -27
c0 -14.9004 14.5 -27 32.3994 -27zM192.3 256v-32h-32v32h32z" />
    <glyph glyph-name="file-audio" unicode="&#xf1c7;" horiz-adv-x="384" 
d="M369.941 350.059c8.68848 -8.68848 14.0586 -20.6943 14.0586 -33.9404v-332.118c0 -26.5098 -21.4902 -48 -48 -48h-288c-26.5098 0 -48 21.4902 -48 48v416c0 26.5098 21.4902 48 48 48h204.118c13.2461 0 25.252 -5.37012 33.9404 -14.0586zM332.118 320
l-76.1182 76.1182v-76.1182h76.1182zM48 -16h288v288h-104c-13.2549 0 -24 10.7451 -24 24v104h-160v-416zM192 60.0244c0 -10.6914 -12.9258 -16.0459 -20.4854 -8.48535l-35.5146 35.9746h-28c-6.62695 0 -12 5.37305 -12 12v56c0 6.62695 5.37305 12 12 12h28
l35.5146 36.9473c7.56055 7.56055 20.4854 2.20605 20.4854 -8.48535v-135.951zM233.201 107.154c9.05078 9.29688 9.05957 24.1328 0.000976562 33.4385c-22.1494 22.752 12.2344 56.2461 34.3945 33.4814c27.1982 -27.9404 27.2119 -72.4443 0.000976562 -100.401
c-21.793 -22.3857 -56.9463 10.3154 -34.3965 33.4814z" />
    <glyph glyph-name="file-video" unicode="&#xf1c8;" horiz-adv-x="384" 
d="M369.941 350.059c8.68848 -8.68848 14.0586 -20.6943 14.0586 -33.9404v-332.118c0 -26.5098 -21.4902 -48 -48 -48h-288c-26.5098 0 -48 21.4902 -48 48v416c0 26.5098 21.4902 48 48 48h204.118c13.2461 0 25.252 -5.37012 33.9404 -14.0586zM332.118 320
l-76.1182 76.1182v-76.1182h76.1182zM48 -16h288v288h-104c-13.2549 0 -24 10.7451 -24 24v104h-160v-416zM276.687 195.303c10.0049 10.0049 27.3135 2.99707 27.3135 -11.3135v-111.976c0 -14.2939 -17.2959 -21.332 -27.3135 -11.3135l-52.6865 52.6738v-37.374
c0 -11.0459 -8.9541 -20 -20 -20h-104c-11.0459 0 -20 8.9541 -20 20v104c0 11.0459 8.9541 20 20 20h104c11.0459 0 20 -8.9541 20 -20v-37.374z" />
    <glyph glyph-name="file-code" unicode="&#xf1c9;" horiz-adv-x="384" 
d="M149.9 98.9004c3.5 -3.30078 3.69922 -8.90039 0.399414 -12.4004l-17.3994 -18.5996c-1.60059 -1.80078 -4 -2.80078 -6.40039 -2.80078c-2.2002 0 -4.40039 0.900391 -6 2.40039l-57.7002 54.0996c-3.7002 3.40039 -3.7002 9.30078 0 12.8008l57.7002 54.0996
c3.40039 3.2998 9 3.2002 12.4004 -0.400391l17.3994 -18.5996l0.200195 -0.200195c3.2002 -3.59961 2.7998 -9.2002 -0.799805 -12.3994l-32.7998 -28.9004l32.7998 -28.9004zM369.9 350.1c9 -9 14.0996 -21.2998 14.0996 -34v-332.1c0 -26.5 -21.5 -48 -48 -48h-288
c-26.5 0 -48 21.5 -48 48v416c0 26.5 21.5 48 48 48.0996h204.1c12.7002 0 24.9004 -5.09961 33.9004 -14.0996zM256 396.1v-76.0996h76.0996zM336 -16v288h-104c-13.2998 0 -24 10.7002 -24 24v104h-160v-416h288zM209.6 234l24.4004 -7
c4.7002 -1.2998 7.40039 -6.2002 6 -10.9004l-54.7002 -188.199c-1.2998 -4.60059 -6.2002 -7.40039 -10.8994 -6l-24.4004 7.09961c-4.7002 1.2998 -7.40039 6.2002 -6 10.9004l54.7002 188.1c1.39941 4.7002 6.2002 7.40039 10.8994 6zM234.1 157.1
c-3.5 3.30078 -3.69922 8.90039 -0.399414 12.4004l17.3994 18.5996c3.30078 3.60059 8.90039 3.7002 12.4004 0.400391l57.7002 -54.0996c3.7002 -3.40039 3.7002 -9.30078 0 -12.8008l-57.7002 -54.0996c-3.5 -3.2998 -9.09961 -3.09961 -12.4004 0.400391
l-17.3994 18.5996l-0.200195 0.200195c-3.2002 3.59961 -2.7998 9.2002 0.799805 12.3994l32.7998 28.9004l-32.7998 28.9004z" />
    <glyph glyph-name="circle-notch" unicode="&#xf1ce;" 
d="M288 419.023c0 10.1973 9.40332 17.7441 19.3828 15.6416c112.31 -23.6621 196.617 -123.316 196.617 -242.665c0 -136.788 -110.745 -247.711 -247.465 -247.999c-137.054 -0.289062 -247.812 109.615 -248.531 246.667
c-0.630859 119.987 83.9551 220.328 196.75 244.026c9.92383 2.08496 19.2461 -5.53418 19.2461 -15.6758v-16.3867c0 -7.47656 -5.18164 -13.9453 -12.4736 -15.5977c-89.1045 -20.1973 -155.526 -99.79 -155.526 -195.034c0 -110.549 89.4678 -200 200 -200
c110.549 0 200 89.4678 200 200c0 95.2578 -66.4316 174.838 -155.526 195.034c-7.29199 1.65234 -12.4736 8.12109 -12.4736 15.5977v16.3916z" />
    <glyph glyph-name="heading" unicode="&#xf1dc;" 
d="M432 368v-352h32c8.83105 0 16 -7.16895 16 -16v-16c0 -8.83105 -7.16895 -16 -16 -16h-128c-8.83105 0 -16 7.16895 -16 16v16c0 8.83105 7.16895 16 16 16h32v152h-224v-152h32c8.83105 0 16 -7.16895 16 -16v-16c0 -8.83105 -7.16895 -16 -16 -16h-128
c-8.83105 0 -16 7.16895 -16 16v16c0 8.83105 7.16895 16 16 16h32v352h-32c-8.83105 0 -16 7.16895 -16 16v16c0 8.83105 7.16895 16 16 16h128c8.83105 0 16 -7.16895 16 -16v-16c0 -8.83105 -7.16895 -16 -16 -16h-32v-152h224v152h-32c-8.83105 0 -16 7.16895 -16 16v16
c0 8.83105 7.16895 16 16 16h128c8.83105 0 16 -7.16895 16 -16v-16c0 -8.83105 -7.16895 -16 -16 -16h-32z" />
    <glyph glyph-name="trash" unicode="&#xf1f8;" horiz-adv-x="448" 
d="M432 368c8.83105 0 16 -7.16895 16 -16v-16c0 -8.83105 -7.16895 -16 -16 -16h-16l-21.2002 -339c-1.57031 -25.0762 -22.4316 -44.9971 -47.8994 -45h-245.801c-25.4678 0.00292969 -46.3291 19.9238 -47.8994 45l-21.2002 339h-16c-8.83105 0 -16 7.16895 -16 16v16
c0 8.83105 7.16895 16 16 16h82.4004l34 56.7002c8.39258 13.9844 23.6729 23.2998 41.1562 23.2998h0.0429688h100.801c0.0146484 0 -0.00292969 0.0517578 0.0117188 0.0517578c17.4834 0 32.7949 -9.36719 41.1875 -23.3516l34 -56.7002h82.4004zM173.6 400l-19.1992 -32
h139.199l-19.1992 32h-100.801zM346.9 -16l21.0098 336h-287.8l21 -336h245.79z" />
    <glyph glyph-name="copyright" unicode="&#xf1f9;" 
d="M256 440c136.967 0 248 -111.033 248 -248s-111.033 -248 -248 -248s-248 111.033 -248 248s111.033 248 248 248zM256 -8c110.549 0 200 89.4678 200 200c0 110.549 -89.4678 200 -200 200c-110.549 0 -200 -89.4688 -200 -200c0 -110.549 89.4678 -200 200 -200z
M363.351 93.0645c-9.61328 -9.71289 -45.5293 -41.3965 -104.064 -41.3965c-82.4297 0 -140.484 61.4248 -140.484 141.567c0 79.1514 60.2754 139.4 139.763 139.4c55.5303 0 88.7373 -26.6201 97.5928 -34.7783c2.37793 -2.1875 3.86914 -5.3252 3.86914 -8.80762
c0 -2.39746 -0.717773 -4.64258 -1.93359 -6.51465l-18.1543 -28.1133c-3.8418 -5.9502 -11.9668 -7.28223 -17.499 -2.9209c-8.5957 6.77637 -31.8145 22.5381 -61.708 22.5381c-48.3037 0 -77.916 -35.3301 -77.916 -80.082c0 -41.5889 26.8877 -83.6924 78.2764 -83.6924
c32.6572 0 56.8428 19.0391 65.7266 27.2256c5.26953 4.85645 13.5957 4.03906 17.8193 -1.73828l19.8652 -27.1699c1.45996 -1.98145 2.32422 -4.42969 2.32422 -7.07715c0 -3.28809 -1.32422 -6.2793 -3.47656 -8.44043z" />
    <glyph glyph-name="diamond" unicode="&#xf219;" horiz-adv-x="448" 
d="M189.5 -48l-178.5 210.3c-14.5996 17.2002 -14.5996 42.2002 0 59.5l178.5 210.2c18.0996 21.4004 50.9004 21.2998 69 0l178.5 -210.3c14.5996 -17.2002 14.5996 -42.2002 0 -59.5l-178.5 -210.2c-18.0996 -21.4004 -50.9004 -21.2998 -69 0zM48 192l176 -206.5
l176 206.5l-176 206.5z" />
    <glyph glyph-name="sticky-note" unicode="&#xf249;" horiz-adv-x="448" 
d="M448 99.8936c0 -13.2451 -5.37012 -25.252 -14.0586 -33.9404l-83.8828 -83.8818c-8.68848 -8.68848 -20.6943 -14.0596 -33.9404 -14.0596h-268.118c-26.5098 0 -48 21.4902 -48 48v351.988c0 26.5098 21.4902 48 48 48h352c26.5098 0 48 -21.4902 48 -48v-268.106z
M320 19.8936l76.1182 76.1182h-76.1182v-76.1182zM400 368h-352v-351.988h224v104c0 13.2549 10.7451 24 24 24h104v223.988z" />
    <glyph glyph-name="calendar-plus" unicode="&#xf271;" horiz-adv-x="448" 
d="M336 156v-24c0 -6.59961 -5.40039 -12 -12 -12h-76v-76c0 -6.59961 -5.40039 -12 -12 -12h-24c-6.59961 0 -12 5.40039 -12 12v76h-76c-6.59961 0 -12 5.40039 -12 12v24c0 6.59961 5.40039 12 12 12h76v76c0 6.59961 5.40039 12 12 12h24c6.59961 0 12 -5.40039 12 -12
v-76h76c6.59961 0 12 -5.40039 12 -12zM448 336v-352c0 -26.5 -21.5 -48 -48 -48h-352c-26.5 0 -48 21.5 -48 48v352c0 26.5 21.5 48 48 48h48v52c0 6.59961 5.40039 12 12 12h40c6.59961 0 12 -5.40039 12 -12v-52h128v52c0 6.59961 5.40039 12 12 12h40
c6.59961 0 12 -5.40039 12 -12v-52h48c26.5 0 48 -21.5 48 -48zM400 -10v298h-352v-298c0 -3.2998 2.7002 -6 6 -6h340c3.2998 0 6 2.7002 6 6z" />
    <glyph glyph-name="calendar-minus" unicode="&#xf272;" horiz-adv-x="448" 
d="M124 120c-6.59961 0 -12 5.40039 -12 12v24c0 6.59961 5.40039 12 12 12h200c6.59961 0 12 -5.40039 12 -12v-24c0 -6.59961 -5.40039 -12 -12 -12h-200zM448 336v-352c0 -26.5 -21.5 -48 -48 -48h-352c-26.5 0 -48 21.5 -48 48v352c0 26.5 21.5 48 48 48h48v52
c0 6.59961 5.40039 12 12 12h40c6.59961 0 12 -5.40039 12 -12v-52h128v52c0 6.59961 5.40039 12 12 12h40c6.59961 0 12 -5.40039 12 -12v-52h48c26.5 0 48 -21.5 48 -48zM400 -10v298h-352v-298c0 -3.2998 2.7002 -6 6 -6h340c3.2998 0 6 2.7002 6 6z" />
    <glyph glyph-name="calendar-times" unicode="&#xf273;" horiz-adv-x="448" 
d="M311.7 73.2998l-17 -17c-4.7002 -4.7002 -12.2998 -4.7002 -17 0l-53.7002 53.7998l-53.7002 -53.6992c-4.7002 -4.7002 -12.2998 -4.7002 -17 0l-17 17c-4.7002 4.69922 -4.7002 12.2998 0 17l53.7002 53.6992l-53.7002 53.7002c-4.7002 4.7002 -4.7002 12.2998 0 17
l17 17c4.7002 4.7002 12.2998 4.7002 17 0l53.7002 -53.7002l53.7002 53.7002c4.7002 4.7002 12.2998 4.7002 17 0l17 -17c4.7002 -4.7002 4.7002 -12.2998 0 -17l-53.7998 -53.7998l53.6992 -53.7002c4.80078 -4.7002 4.80078 -12.2998 0.100586 -17zM448 336v-352
c0 -26.5 -21.5 -48 -48 -48h-352c-26.5 0 -48 21.5 -48 48v352c0 26.5 21.5 48 48 48h48v52c0 6.59961 5.40039 12 12 12h40c6.59961 0 12 -5.40039 12 -12v-52h128v52c0 6.59961 5.40039 12 12 12h40c6.59961 0 12 -5.40039 12 -12v-52h48c26.5 0 48 -21.5 48 -48zM400 -10
v298h-352v-298c0 -3.2998 2.7002 -6 6 -6h340c3.2998 0 6 2.7002 6 6z" />
    <glyph glyph-name="calendar-check" unicode="&#xf274;" horiz-adv-x="448" 
d="M400 384c26.5098 0 48 -21.4902 48 -48v-352c0 -26.5098 -21.4902 -48 -48 -48h-352c-26.5098 0 -48 21.4902 -48 48v352c0 26.5098 21.4902 48 48 48h48v52c0 6.62695 5.37305 12 12 12h40c6.62695 0 12 -5.37305 12 -12v-52h128v52c0 6.62695 5.37305 12 12 12h40
c6.62695 0 12 -5.37305 12 -12v-52h48zM394 -16c3.31152 0 6 2.68848 6 6v298h-352v-298c0 -3.31152 2.68848 -6 6 -6h340zM341.151 184.65l-142.31 -141.169c-4.70508 -4.66699 -12.3027 -4.6377 -16.9707 0.0673828l-75.0908 75.6992
c-4.66699 4.70508 -4.6377 12.3027 0.0673828 16.9707l22.7197 22.5361c4.70508 4.66699 12.3027 4.63672 16.9697 -0.0693359l44.1035 -44.4609l111.072 110.182c4.70508 4.66699 12.3027 4.63672 16.9707 -0.0683594l22.5361 -22.7178
c4.66699 -4.70508 4.63672 -12.3027 -0.0683594 -16.9697z" />
    <glyph glyph-name="universal-access" unicode="&#xf29a;" 
d="M256 440c136.967 0 248 -111.033 248 -248s-111.033 -248 -248 -248s-248 111.033 -248 248s111.033 248 248 248zM256 -16c114.971 0 208 93.0469 208 208c0 114.971 -93.0469 208 -208 208c-114.971 0 -208 -93.0469 -208 -208c0 -114.971 93.0469 -208 208 -208z
M399.594 270.66c2.53809 -10.75 -4.11914 -21.5225 -14.8691 -24.0615c-29.8643 -7.05078 -57.8389 -13.2852 -85.5967 -16.751c0.678711 -111.33 12.6543 -128.456 26.9688 -165.115c4.82324 -12.3467 -1.27441 -26.2656 -13.6221 -31.0879
c-12.3398 -4.82227 -26.2627 1.27051 -31.0869 13.6221c-9.55859 24.4678 -18.0889 42.9492 -23.8047 85.1201h-3.16406c-5.7207 -42.2061 -14.2686 -60.7061 -23.8047 -85.1201c-4.81641 -12.3281 -18.7217 -18.4502 -31.0869 -13.623
c-12.3467 4.82324 -18.4453 18.7412 -13.623 31.0889c14.3301 36.6855 26.29 53.8369 26.9688 165.115c-27.7578 3.46582 -55.7324 9.69922 -85.5967 16.751c-10.75 2.53809 -17.4072 13.3115 -14.8691 24.0615c2.53906 10.75 13.3115 17.4053 24.0605 14.8691
c104.769 -24.7363 134.447 -24.7012 239.066 0c10.749 2.53809 21.5215 -4.11816 24.0596 -14.8691zM217.806 313.806c0 21.0947 17.1006 38.1943 38.1943 38.1943s38.1943 -17.0996 38.1943 -38.1943c0 -21.0938 -17.1006 -38.1934 -38.1943 -38.1934
s-38.1943 17.1006 -38.1943 38.1934z" />
    <glyph glyph-name="audio-description" unicode="&#xf29e;" 
d="M464 384c26.5098 0 48 -21.4902 48 -48v-288c0 -26.5098 -21.4902 -48 -48 -48h-416c-26.5098 0 -48 21.4902 -48 48v288c0 26.5098 21.4902 48 48 48h416zM458 48c3.31152 0 6 2.68848 6 6v276c0 3.31152 -2.68848 6 -6 6h-404c-3.31152 0 -6 -2.68848 -6 -6v-276
c0 -3.31152 2.68848 -6 6 -6h404zM245.459 111.861c2.64453 -7.7832 -3.14062 -15.8613 -11.3613 -15.8613h-29.1719c-5.44922 0 -10.0537 3.64258 -11.5146 8.62207l-8.79297 29.9766h-51.3672l-8.57422 -29.9053c-1.4375 -5.0166 -6.05957 -8.69336 -11.5352 -8.69336
h-29.1328c-8.21973 0 -14.0059 8.07812 -11.3613 15.8613l57.0967 168c1.6084 4.73242 6.08887 8.13867 11.3623 8.13867h35.8936c5.27344 0 9.75391 -3.40625 11.3623 -8.13867zM162.925 209.291c-1.27637 4.41895 -2.65039 9.99121 -3.87109 15.2422
c-1.2207 -5.25098 -2.59473 -10.8242 -3.87207 -15.2451l-9.04102 -30.6523h25.6064zM331.2 288c61.041 0 98.96 -36.6367 98.96 -95.6143c0 -59.4531 -37.9189 -96.3857 -98.96 -96.3857h-57.3662c-6.62695 0 -12 5.37305 -12 12v168c0 6.62695 5.37305 12 12 12h57.3662z
M329.399 142.61c29.7754 0 46.1748 17.6768 46.1748 49.7744c0 32.2383 -17.4902 49.0049 -46.1748 49.0049h-14.5234v-98.7793h14.5234z" />
    <glyph glyph-name="sign-language" unicode="&#xf2a7;" horiz-adv-x="448" 
d="M448 192.9c0.599609 -19.7002 -8.09961 -38.6006 -23.2998 -50.9004l-47.1006 -37.4004v-87.6992c0 -28.5 -19.3994 -53.6006 -47.1992 -60.3008l-69 -16.5996c-11.3008 -2.7002 -22.8008 -4.09961 -34.4004 -4.09961h-92.0996c-30.7002 0 -55.5 24.5996 -56.5 55.0996
c-32.7002 1.40039 -58.8008 30.9004 -53.9004 65.2002c-15 10.3994 -24.9004 27.8994 -24.5 47.7998c0.400391 19.2998 10.0996 36.2002 25 46.2998c-4.5 34 21.5 64.7002 56 64.7002h33c-15.4004 23.7998 -11.2002 56.0996 11 74.9004
c-19.5 26.8994 -12.5 65.8994 17 83.2998c-1.2002 18.7998 6.59961 37.2998 22 49.2002c15.9004 12.0996 35.4004 14.0996 51.5996 8.7998c10.2002 10.2998 24.4004 16.7998 40.1006 16.7998c17.7002 0 34 -8.09961 44.7998 -22.2002l46.7002 -61.2002
c34.7002 35.3008 94.8994 11.6006 96.5 -38.2998zM182.5 333.8c-12.4004 16.2998 -37.4004 -2.59961 -24 -20.2002l40 -52.5c12.7002 5.10059 27.4004 3.30078 38.5 -5l11 -8.09961zM173.8 255.7c-12.7998 16.7998 -37.5996 -2.40039 -24.7002 -19.4004l28.5 -37.2998
h2.90039c-10 14.0996 -10.2002 33.5 0 47.9004zM336.5 17v123.5c0 6.7002 -3.2002 13.0996 -8.5 17l-105.7 78.5c-16.3994 12.0996 -35 -13.4004 -18.0996 -26l26.7002 -19.7998c2.2998 -1.7002 3.59961 -4.40039 3.59961 -7.2002c0 -5 -4 -9 -9 -9h-144.5
c-20.9004 0 -20.2002 -32 0.5 -32h107.2c5 0 9 -4 9 -9v-5c0 -5 -4 -9 -9 -9h-132.2c-20.9004 0 -20.2002 -32 0.5 -32h131.8c5 0 9 -4 9 -9v-5c0 -5 -4 -9 -9 -9h-108.399c-20.9004 0 -20.2002 -32 0.5 -32h107.8c5 0 9 -4 9 -9v-5c0 -5 -4 -9 -9 -9h-53.4004
c-20.7002 0 -21.3994 -32 -0.5 -32h92.1006c8.2998 0 16.6992 0.900391 24.7998 2.90039l69 16.5996c9.2998 2.2998 15.7998 10.7002 15.7998 20.5zM399.1 174.2c5.10059 4.09961 8.10059 10.5996 8 17.3994l-4.2998 133.4c-0.700195 20.7002 -31.7002 20.5996 -31 -1.09961
l1.10059 -33.6006c0.199219 -8.7002 -10.9004 -12.7002 -16.2002 -5.7002l-88.7998 116.4c-12.4004 16.2002 -37.4004 -2.59961 -24 -20.2002l65.8994 -86.3994c2.90039 -3.90039 2.2002 -9.5 -1.59961 -12.5l-3.90039 -3.10059
c-1.89941 -1.5 -4.2998 -2.2002 -6.7002 -1.89941c-2.39941 0.299805 -4.5 1.59961 -6 3.5l-81.1992 106.5c-12.4004 16.1992 -37.4004 -2.60059 -24 -20.2002l81 -106.101c2.89941 -3.89941 2.19922 -9.5 -1.60059 -12.5l-3.89941 -3.09961
c-2.10059 -1.7002 -4.80078 -2.2998 -7.40039 -1.7998l88.2998 -65.6006c10.6006 -7.89941 17.2998 -20.1992 18.4004 -33.5z" />
    <glyph glyph-name="envelope-open" unicode="&#xf2b6;" 
d="M494.586 283.484c10.6523 -8.80762 17.4141 -22.1064 17.4141 -36.9932v-262.491c0 -26.5098 -21.4902 -48 -48 -48h-416c-26.5098 0 -48 21.4902 -48 48v262.515c0 14.9355 6.80469 28.2705 17.5146 37.0771c4.08008 3.35449 110.688 89.0996 135.15 108.549
c22.6992 18.1426 60.1299 55.8594 103.335 55.8594c43.4365 0 81.2314 -38.1914 103.335 -55.8594c23.5283 -18.707 130.554 -104.773 135.251 -108.656zM464 -10v253.632c0 0.00195312 0.00390625 0.000976562 0.00390625 0.00292969
c0 1.88184 -0.869141 3.56152 -2.22754 4.66016c-15.8633 12.8232 -108.793 87.5752 -132.366 106.316c-17.5527 14.0195 -49.7168 45.3887 -73.4102 45.3887c-23.6016 0 -55.2451 -30.8799 -73.4102 -45.3887c-23.5713 -18.7393 -116.494 -93.4795 -132.364 -106.293
c-1.40918 -1.13965 -2.22559 -2.85254 -2.22559 -4.66504v-253.653c0 -3.31152 2.68848 -6 6 -6h404c3.31152 0 6 2.68848 6 6zM432.009 177.704c4.24902 -5.15918 3.46484 -12.7949 -1.74512 -16.9814c-28.9746 -23.2822 -59.2734 -47.5967 -70.9287 -56.8623
c-22.6992 -18.1436 -60.1299 -55.8604 -103.335 -55.8604c-43.4521 0 -81.2871 38.2373 -103.335 55.8604c-11.2793 8.9668 -41.7441 33.4131 -70.9268 56.8643c-5.20996 4.1875 -5.99316 11.8223 -1.74512 16.9814l15.2578 18.5283
c4.17773 5.07227 11.6572 5.84277 16.7793 1.72559c28.6182 -23.001 58.5654 -47.0352 70.5596 -56.5713c17.5527 -14.0195 49.7168 -45.3887 73.4102 -45.3887c23.6016 0 55.2461 30.8799 73.4102 45.3887c11.9941 9.53516 41.9434 33.5703 70.5625 56.5684
c5.12207 4.11621 12.6016 3.3457 16.7783 -1.72656z" />
    <glyph glyph-name="watch" unicode="&#xf2e1;" horiz-adv-x="384" 
d="M320 335.1c39.2998 -35.0996 64 -86.1992 64 -143.1s-24.7002 -108 -64 -143.1v-88.9004c0 -13.2002 -10.7998 -24 -24 -24h-208c-13.2002 0 -24 10.7998 -24 24v88.9004c-39.2998 35.0996 -64 86.1992 -64 143.1s24.7002 108 64 143.1v88.9004
c0 13.2002 10.7998 24 24 24h208c13.2002 0 24 -10.7998 24 -24v-88.9004zM104 408v-45.2998c26.4004 13.5996 56.2998 21.2998 88 21.2998s61.5996 -7.7002 88 -21.2998v45.2998h-176zM280 -24v45.2998c-26.4004 -13.5996 -56.2998 -21.2998 -88 -21.2998
s-61.5996 7.7002 -88 21.2998v-45.2998h176zM192 48c80.5 0 144 65.4004 144 144c0 80.2002 -65.0996 144 -144 144c-80.5 0 -144 -65.4004 -144 -144c0 -80.2002 65.0996 -144 144 -144zM230.3 119.6l-61.0996 41.6006c-3.2998 2.2002 -5.2002 5.89941 -5.2002 9.89941
v112.9c0 6.59961 5.40039 12 12 12h32c6.59961 0 12 -5.40039 12 -12v-89.5996l41.9004 -28.5c5.5 -3.7002 6.89941 -11.2002 3.19922 -16.7002l-18 -26.4004c-3.7998 -5.5 -11.2998 -6.89941 -16.7998 -3.2002z" />
    <glyph glyph-name="utensil-fork" unicode="&#xf2e3;" 
d="M457.4 340.7c38.5 -9.7998 71.5 -59.1006 45.0996 -97.5c-8.7998 -13.2002 -51.5 -76.2998 -75.2998 -100.101c-39.6006 -39.5996 -94 -52 -145.5 -34.5996l-137.9 -154.3c-20.7998 -23.2998 -57.2998 -24.5 -79.8994 -1.90039l-47.6006 47.6006
c-22.3994 22.3994 -21.5996 58.8994 1.90039 79.8994l154.2 137.9c-16.6006 49.0996 -6.7002 104.2 34.5996 145.5c23.7998 23.8994 87 66.7002 100.1 75.5c37.6006 25.5996 87.4004 -5.40039 97.6006 -45.2002c23.7998 -6.09961 46.3994 -28 52.7002 -52.7998zM462.9 270.1
c6.09961 8.60059 -15.3008 29.6006 -23.7002 23.3008l-90.1006 -90.1006c-9.19922 -7.7998 -31 13.7998 -23.5996 23.2002l84.7002 96.4004c5.89941 8.39941 -15 29.2998 -23.4004 23.3994l-96.3994 -84.7002c-9.40039 -7.39941 -30.9004 14.4004 -23.2002 23.6006
l90.0996 90.0996c6.40039 8.2998 -14.7002 29.6006 -23.2002 23.6006c0 0 -71.1992 -47.8008 -93.0996 -69.7002c-34.7002 -34.7002 -36.7002 -83.1006 -9.5 -123.2l-181.4 -162c-2.89941 -2.59961 -2.7998 -7.2998 0.100586 -10.2002l47.5996 -47.5996
c3 -3 7.7002 -3 10.2002 -0.100586l162 181.4c40.5996 -27.5 88.9004 -24.7998 123.2 9.5c21.8994 21.7998 69.7002 93.0996 69.7002 93.0996z" />
    <glyph glyph-name="utensil-knife" unicode="&#xf2e4;" 
d="M463.3 431.4c34.5 -32.9004 48.7002 -88.5 48.7002 -136c0 -58.1006 -20 -114.301 -61.0996 -153.601c-48.3008 -45.8994 -110 -54.7998 -176.4 -46.5996l-122.6 -140.7c-21 -24.0996 -58.5 -24.7002 -82.4004 -1.90039l-51 48.6006
c-23.7002 22.5996 -25 59.5996 -1.7998 81.7002l367.6 350.199c22 21 56.9004 19.4004 79 -1.69922zM417.7 176.7c66.2002 62.8994 53.0996 181.2 12.5 219.899c-4 3.80078 -9.7998 4.5 -12.7998 1.7002l-367.601 -350.2c-3 -2.89941 -2.09961 -8.39941 1.7998 -12.1992
l51 -48.5c4 -3.80078 10.2002 -4.7002 13.1006 -1.30078l139.899 160.601c59.1006 -10.6006 118.4 -11.6006 162.101 30z" />
    <glyph glyph-name="utensil-spoon" unicode="&#xf2e5;" 
d="M474.4 410.5c64.8994 -64.9004 38.5996 -181.8 -24.8008 -245.3c-46.2998 -46.2998 -99.5996 -57.4004 -153.399 -40.5l-152.4 -169.9c-21.5 -23.8994 -59.2002 -25.5 -82.5 -2.2002l-44.7002 44.7002c-23.0996 23.1006 -22 60.7998 2.2002 82.5l169.9 152.5
c-17.4004 55.2998 -4.5 108.3 40.5 153.4c64.5 64.5 181.2 88.7998 245.2 24.7998zM415.7 199.3c45.7998 45.7998 68.7002 133.4 24.7002 177.3c-42.2002 42.2002 -129 23.5 -177.301 -24.7998c-42.3994 -42.3994 -41.2998 -86 -17.0996 -132.5l-195.2 -175.2
c-3.7002 -3.39941 -3.89941 -9.19922 -0.299805 -12.7998l44.7002 -44.7002c3.59961 -3.69922 9.5 -3.39941 12.7998 0.300781l175.2 195.3c49.5996 -25.9004 92.2002 -23.2002 132.5 17.0996z" />
    <glyph glyph-name="triangle" unicode="&#xf2ec;" horiz-adv-x="576" 
d="M329.6 424l240 -416c18.4004 -32 -4.69922 -72 -41.5996 -72h-479.9c-37 0 -60 40.0996 -41.5996 72l239.9 416c18.5 32 64.7998 32 83.1992 0zM48 -16h480l-240 416z" />
    <glyph glyph-name="trash-alt" unicode="&#xf2ed;" horiz-adv-x="448" 
d="M268 32c-6.62305 0 -12 5.37695 -12 12v216c0 6.62305 5.37695 12 12 12h24c6.62305 0 12 -5.37695 12 -12v-216c0 -6.62305 -5.37695 -12 -12 -12h-24zM432 368c8.83105 0 16 -7.16895 16 -16v-16c0 -8.83105 -7.16895 -16 -16 -16h-16v-336
c0 -26.4922 -21.5078 -48 -48 -48h-288c-26.4922 0 -48 21.5078 -48 48v336h-16c-8.83105 0 -16 7.16895 -16 16v16c0 8.83105 7.16895 16 16 16h82.4102l34.0195 56.7002c8.39258 13.9844 23.6777 23.2998 41.1602 23.2998h100.82
c0.0078125 0 -0.015625 0.0517578 -0.0078125 0.0517578c17.4824 0 32.7949 -9.36719 41.1875 -23.3516l34 -56.7002h82.4102zM171.84 397.09l-17.4502 -29.0898h139.221l-17.46 29.0898c-1.0498 1.74707 -2.95898 2.91016 -5.14355 2.91016h-0.00683594h-94
c-0.00585938 0 -0.00683594 0.00683594 -0.0126953 0.00683594c-2.18457 0 -4.09766 -1.16992 -5.14746 -2.91699zM368 -16v336h-288v-336h288zM156 32c-6.62305 0 -12 5.37695 -12 12v216c0 6.62305 5.37695 12 12 12h24c6.62305 0 12 -5.37695 12 -12v-216
c0 -6.62305 -5.37695 -12 -12 -12h-24z" />
    <glyph glyph-name="stopwatch" unicode="&#xf2f2;" horiz-adv-x="448" 
d="M393.9 264c24 -33.9004 38.0996 -75.2998 38.0996 -120c0 -114.9 -93.0996 -208 -208 -208s-208 93.0996 -208 208c0 106.8 80.4004 194.7 184 206.6v49.4004h-28c-6.59961 0 -12 5.40039 -12 12v24c0 6.59961 5.40039 12 12 12h104c6.59961 0 12 -5.40039 12 -12v-24
c0 -6.59961 -5.40039 -12 -12 -12h-28v-49.2998c43.4004 -4.90039 82.7002 -23.2998 113.8 -50.7998l20.7002 20.6992c4.7002 4.7002 12.2998 4.7002 17 0l17 -17c4.7002 -4.69922 4.7002 -12.2998 0 -17zM224 -16c88.4004 0 160 71.5996 160 160s-71.5996 160 -160 160
s-160 -71.5996 -160 -160s71.5996 -160 160 -160zM236 96h-24c-6.59961 0 -12 5.40039 -12 12v136c0 6.59961 5.40039 12 12 12h24c6.59961 0 12 -5.40039 12 -12v-136c0 -6.59961 -5.40039 -12 -12 -12z" />
    <glyph glyph-name="spade" unicode="&#xf2f4;" 
d="M256 400c0 0 -174.4 -167.2 -192.1 -191.7c-10.1006 -14.0996 -16.1006 -31.3994 -16 -50.0996c0.199219 -47.2998 39.3994 -85.1006 86.5996 -85.1006h0.799805c38.2002 0.400391 49.1006 6.30078 78.2998 36.2002c1.2002 1.2002 2.7002 1.7998 4.2002 1.7998
c3 0 6 -2.39941 6 -6v-17.0996c0 -37.7002 2.2998 -48.9004 -24.7002 -82.9004c-6.69922 -8.5 -0.699219 -21.0996 10.2002 -21.0996h93.2002c10.9004 0 17 12.5996 10.2002 21.0996c-27 34.1006 -24.7002 45.2002 -24.7002 82.9004v17.0996c0 3.60059 2.90039 6 6 6
c1.5 0 3 -0.5 4.2002 -1.7998c29.5 -30.2002 40.2998 -35.8994 78.3994 -36.2002h0.800781c47.0996 0 86.2998 37.7002 86.5996 84.8008c0.0996094 18.6992 -5.7998 36 -15.7998 50.0996c-17.6006 24.7002 -192.2 192 -192.2 192zM256 448
c12 0 23.9004 -4.40039 33.4004 -13.2998c0.5 -0.400391 44.3994 -42.5 89.8994 -87.1006c94.7002 -92.7998 103.8 -105.6 108.2 -111.699c16.4004 -23 24.9004 -50.1006 24.7002 -78.3008c-0.299805 -35.5996 -14.6006 -69.0996 -40.2998 -94.0996
c-25.4004 -24.7002 -58.9004 -38.2998 -94.3008 -38.2998h-1.19922c-7 0 -13.6006 0.299805 -20 0.799805c3.89941 -7.2998 6.39941 -15.2002 7.09961 -23.5c0.900391 -11 -1.09961 -22 -5.90039 -32c-4.7998 -10 -12.1992 -18.4004 -21.3994 -24.5
c-9.90039 -6.5 -21.5 -10 -33.5 -10h-93.2002c-12 0 -23.5996 3.5 -33.5 10c-9.2002 6.09961 -16.5996 14.5 -21.4004 24.5c-4.89941 9.90039 -6.89941 21 -5.89941 32c0.799805 8.2998 3.2002 16.2998 7.09961 23.5c-6.39941 -0.5 -13 -0.700195 -20 -0.799805h-1.2002
c-74 0 -134.3 59.5996 -134.6 132.899c-0.0996094 28.2002 8.5 55.3008 25 78.2002c4.40039 6.10059 13.5 18.7002 108 111.3c45.5 44.5 89.4004 86.6006 89.7998 87c9.2998 8.90039 21.2002 13.4004 33.2002 13.4004z" />
    <glyph glyph-name="rectangle-landscape" unicode="&#xf2fa;" horiz-adv-x="510" 
d="M462 384c26.5 0 48 -21.5 48 -48v-288c0 -26.5 -21.5 -48 -48 -48h-414c-26.5 0 -48 21.5 -48 48v288c0 26.5 21.5 48 48 48h414zM456 48c3.2998 0 6 2.7002 6 6v276c0 3.2998 -2.7002 6 -6 6h-402c-3.2998 0 -6 -2.7002 -6 -6v-276c0 -3.2998 2.7002 -6 6 -6h402z" />
    <glyph glyph-name="rectangle-portrait" unicode="&#xf2fb;" horiz-adv-x="385" 
d="M385 -16c0 -26.5 -21.5 -48 -48 -48h-289c-26.5 0 -48 21.5 -48 48v416c0 26.5 21.5 48 48 48h289c26.5 0 48 -21.5 48 -48v-416zM48 -10c0 -3.2998 2.7002 -6 6 -6h277c3.2998 0 6 2.7002 6 6v404c0 3.2998 -2.7002 6 -6 6h-277c-3.2998 0 -6 -2.7002 -6 -6v-404z" />
    <glyph glyph-name="rectangle-wide" unicode="&#xf2fc;" horiz-adv-x="640" 
d="M592 351.5c26.5 0 48 -21.5 48 -48v-223c0 -26.5 -21.5 -48 -48 -48h-544c-26.5 0 -48 21.5 -48 48v223c0 26.5 21.5 48 48 48h544zM586 80.5c3.2998 0 6 2.7002 6 6v211c0 3.2998 -2.7002 6 -6 6h-532c-3.2998 0 -6 -2.7002 -6 -6v-211c0 -3.2998 2.7002 -6 6 -6h532z
" />
    <glyph glyph-name="octagon" unicode="&#xf306;" 
d="M497.9 297.5c9 -9 14.0996 -21.2002 14.1992 -34v-143c0 -12.7002 -5.09961 -24.9004 -14.0996 -33.9004l-136.5 -136.5c-9 -9 -21.2002 -14.0996 -33.9004 -14.0996h-143.1c-12.7002 0 -24.9004 5.09961 -33.9004 14.0996l-136.5 136.5
c-9 9 -14.0996 21.2002 -14.0996 33.9004v143.1c0 12.7002 5.09961 24.9004 14.0996 33.9004l136.5 136.4c9 9 21.2002 14.0996 33.9004 14.0996h143.1c12.7002 0 24.9004 -5.09961 33.9004 -14.0996zM464 120.5v143l-136.4 136.5h-143.1l-136.5 -136.5v-143l136.5 -136.5
h143z" />
    <glyph glyph-name="hexagon" unicode="&#xf312;" horiz-adv-x="576" 
d="M441.5 408.2l112 -192c8.7002 -15 8.7002 -33.5 0 -48.4004l-112 -192c-8.59961 -14.7002 -24.4004 -23.7998 -41.5 -23.7998h-224c-17.0996 0 -32.9004 9.09961 -41.5 23.7998l-112 192c-8.7002 15 -8.7002 33.5 0 48.4004l112 192
c8.59961 14.7002 24.4004 23.7998 41.5 23.7998h224c17.0996 0 32.9004 -9.09961 41.5 -23.7998zM400 0l112 192l-112 192h-224l-112 -192l112 -192h224z" />
    <glyph glyph-name="file-check" unicode="&#xf316;" horiz-adv-x="384" 
d="M369.941 350.059c8.68848 -8.68848 14.0586 -20.6943 14.0586 -33.9404v-332.118c0 -26.5098 -21.4902 -48 -48 -48h-288c-26.5098 0 -48 21.4902 -48 48v416c0 26.5098 21.4902 48 48 48h204.118c13.2461 0 25.252 -5.37012 33.9404 -14.0586zM332.118 320
l-76.1182 76.1182v-76.1182h76.1182zM48 -16h288v288h-104c-13.2549 0 -24 10.7451 -24 24v104h-160v-416zM309.151 176.661l-142.31 -141.169c-4.70508 -4.66699 -12.3027 -4.63672 -16.9707 0.0673828l-75.0908 75.7002
c-4.66699 4.70508 -4.6377 12.3037 0.0673828 16.9717l22.7197 22.5352c4.70508 4.66699 12.3027 4.6377 16.9697 -0.0683594l44.1035 -44.4609l111.072 110.181c4.70508 4.66699 12.3027 4.63672 16.9707 -0.0683594l22.5361 -22.7178
c4.66699 -4.70605 4.63672 -12.3027 -0.0683594 -16.9707z" />
    <glyph glyph-name="file-exclamation" unicode="&#xf31a;" horiz-adv-x="384" 
d="M369.9 350.1c9 -9 14.0996 -21.2998 14.0996 -34v-332.1c0 -26.5 -21.5 -48 -48 -48h-288c-26.5 0 -48 21.5 -48 48v416c0 26.5 21.5 48 48 48.0996h204.1c12.7002 0 24.9004 -5.09961 33.9004 -14.0996zM332.1 320l-76.0996 76.0996v-76.0996h76.0996zM48 -16h288v288
h-104c-13.2998 0 -24 10.7002 -24 24v104h-160v-416zM156.6 235.3c-0.399414 6.90039 5.10059 12.7002 12 12.7002h46.8008c6.89941 0 12.3994 -5.7998 12 -12.7002l-6.5 -104c-0.400391 -6.39941 -5.7002 -11.2998 -12 -11.2998h-33.8008
c-6.39941 0 -11.5996 5 -12 11.2998zM232 64c0 -22.0996 -17.9004 -40 -40 -40s-40 17.9004 -40 40s17.9004 40 40 40s40 -17.9004 40 -40z" />
    <glyph glyph-name="file-edit" unicode="&#xf31c;" horiz-adv-x="384" 
d="M369.9 350.1c9 -9 14.0996 -21.2998 14.0996 -34v-332.1c0 -26.5 -21.5 -48 -48 -48h-288c-26.5 0 -48 21.5 -48 48v416c0 26.5 21.5 48 48 48.0996h204.1c12.7002 0 24.9004 -5.09961 33.9004 -14.0996zM332.1 320l-76.0996 76.0996v-76.0996h76.0996zM48 -16h288v288
h-104c-13.2998 0 -24 10.7002 -24 24v104h-160v-416zM211.1 213.9l46.8008 -46.8008c2 -2 2 -5.19922 0 -7.19922l-114.5 -114.5l-48.2002 -5.40039c-6.40039 -0.700195 -11.9004 4.7002 -11.2002 11.2002l5.40039 48.2002l114.5 114.5c2 2 5.19922 2 7.19922 0z
M294.1 196.1l-19.5 -19.5c-2 -2 -5.19922 -2 -7.19922 0l-46.8008 46.8008c-2 2 -2 5.19922 0 7.19922l19.5 19.5c7.90039 7.90039 20.7002 7.90039 28.6006 0l25.3994 -25.3994c7.90039 -7.90039 7.90039 -20.7002 0 -28.6006z" />
    <glyph glyph-name="club" unicode="&#xf327;" 
d="M256 400c-60.2002 0 -101.4 -60.7998 -79.5996 -116.7l14.5996 -37.3994c1.5 -4 -1.5 -8.2002 -5.59961 -8.2002c-0.300781 0 -0.5 0.0996094 -0.800781 0.0996094l-39.7998 5.2998c-3.89941 0.600586 -7.7002 0.800781 -11.5 0.800781
c-46.7002 0 -85.3994 -38.1006 -85.2998 -85.6006c0.0996094 -47.2998 39.4004 -85.2002 86.5996 -85.2002h0.800781c38.1992 0.400391 49.0996 6.30078 78.2998 36.2002c1.2002 1.2002 2.7002 1.7998 4.2002 1.7998c3 0 6 -2.39941 6 -6v-17.0996
c0 -37.7002 2.2998 -48.9004 -24.7002 -82.9004c-6.7002 -8.5 -0.700195 -21.0996 10.2002 -21.0996h93.0996c10.9004 0 17 12.5996 10.2002 21.0996c-27 34.1006 -24.7002 45.2002 -24.7002 82.9004v17.2002c0 3.59961 2.90039 6 6 6c1.5 0 3 -0.5 4.2002 -1.7998
c29.5 -30.2002 40.2998 -35.9004 78.3994 -36.2002h0.800781c47.1992 0 86.3994 37.7998 86.5996 85.0996c0.200195 47.6006 -38.5 85.7998 -85.2998 85.7998c-3.7998 0 -7.60059 -0.299805 -11.5 -0.799805l-39.7998 -5.2998
c-0.300781 -0.0996094 -0.5 -0.0996094 -0.800781 -0.0996094c-4.19922 0 -7.19922 4.19922 -5.59961 8.19922l14.5996 37.4004c21.7002 55.5996 -19.2998 116.5 -79.5996 116.5zM256 448c22.4004 0 44.5 -5.59961 63.9004 -16.4004
c18.2998 -10 34.2998 -24.5 46.1992 -41.8994c11.9004 -17.4004 19.6006 -37.6006 22.3008 -58.4004c1.69922 -13.2002 1.39941 -26.5996 -0.900391 -39.7002c14.7998 -1 29.2998 -4.39941 43.0996 -10.2998c16 -6.7002 30.2002 -16.3994 42.5 -28.7002
c25.2002 -25.2998 39 -58.8994 38.9004 -94.5996c-0.299805 -73.2998 -60.7002 -132.9 -134.6 -132.9h-1.2002c-7 0 -13.6006 0.300781 -20 0.800781c3.89941 -7.30078 6.39941 -15.2002 7.09961 -23.5c0.900391 -11 -1.09961 -22 -5.89941 -32
c-4.80078 -10 -12.2002 -18.4004 -21.4004 -24.5c-9.90039 -6.5 -21.5 -10 -33.5 -10h-93.0996c-12 0 -23.6006 3.5 -33.5 10c-9.2002 6.09961 -16.6006 14.5 -21.4004 24.5c-4.90039 9.89941 -6.90039 21 -5.90039 32c0.800781 8.2998 3.2002 16.2998 7.10059 23.5
c-6.40039 -0.5 -13 -0.700195 -19.9004 -0.800781h-1.2002c-74.0996 0 -134.399 59.7002 -134.6 133.101c-0.0996094 35.7002 13.7998 69.2002 39 94.5c12.2002 12.2998 26.5 21.8994 42.4004 28.7002c13.7998 5.89941 28.2998 9.2998 43.0996 10.2998
c-2.2998 13.0996 -2.59961 26.5 -0.900391 39.7002c2.7002 20.7998 10.4004 41 22.3008 58.3994c11.8994 17.4004 27.8994 32 46.1992 42c19.4004 10.6006 41.5 16.2002 63.9004 16.2002z" />
    <glyph glyph-name="calendar-edit" unicode="&#xf333;" horiz-adv-x="448" 
d="M243.1 213.9l46.8008 -46.8008c2 -2 2 -5.19922 0 -7.19922l-114.5 -114.5l-48.2002 -5.40039c-6.40039 -0.700195 -11.9004 4.7002 -11.2002 11.2002l5.40039 48.2002l114.5 114.5c2 2 5.19922 2 7.19922 0zM326.1 224.7c7.90039 -7.90039 7.90039 -20.7002 0 -28.6006
l-19.5 -19.5c-2 -2 -5.19922 -2 -7.19922 0l-46.8008 46.8008c-2 2 -2 5.19922 0 7.19922l19.5 19.5c7.90039 7.90039 20.7002 7.90039 28.6006 0zM448 336v-352c0 -26.5 -21.5 -48 -48 -48h-352c-26.5 0 -48 21.5 -48 48v352c0 26.5 21.5 48 48 48h48v52
c0 6.59961 5.40039 12 12 12h40c6.59961 0 12 -5.40039 12 -12v-52h128v52c0 6.59961 5.40039 12 12 12h40c6.59961 0 12 -5.40039 12 -12v-52h48c26.5 0 48 -21.5 48 -48zM400 -10v298h-352v-298c0 -3.2998 2.7002 -6 6 -6h340c3.2998 0 6 2.7002 6 6z" />
    <glyph glyph-name="calendar-exclamation" unicode="&#xf334;" horiz-adv-x="448" 
d="M188.6 235.3c-0.399414 6.90039 5.10059 12.7002 12 12.7002h46.8008c6.89941 0 12.3994 -5.7998 12 -12.7002l-6.5 -104c-0.400391 -6.39941 -5.7002 -11.2998 -12 -11.2998h-33.8008c-6.39941 0 -11.5996 5 -12 11.2998zM264 64c0 -22.0996 -17.9004 -40 -40 -40
s-40 17.9004 -40 40s17.9004 40 40 40s40 -17.9004 40 -40zM400 384c26.5 0 48 -21.5 48 -48v-352c0 -26.5 -21.5 -48 -48 -48h-352c-26.5 0 -48 21.5 -48 48v352c0 26.5 21.5 48 48 48h48v52c0 6.59961 5.40039 12 12 12h40c6.59961 0 12 -5.40039 12 -12v-52h128v52
c0 6.59961 5.40039 12 12 12h40c6.59961 0 12 -5.40039 12 -12v-52h48zM394 -16c3.2998 0 6 2.7002 6 6v298h-352v-298c0 -3.2998 2.7002 -6 6 -6h340z" />
    <glyph glyph-name="badge" unicode="&#xf335;" 
d="M256 -64c-36.2002 0 -68.2002 18.5996 -86.7002 46.7002c-33.0996 -6.7998 -68.7002 2.59961 -94.2998 28.2998c-25.5996 25.5996 -35.0996 61.4004 -28.2998 94.2998c-28 18.4004 -46.7002 50.4004 -46.7002 86.7002c0 36.2002 18.5996 68.2002 46.7002 86.7002
c-6.7998 32.7998 2.59961 68.7002 28.2998 94.2998c25.5996 25.5996 61.4004 35.0996 94.2998 28.2998c18.4004 28 50.4004 46.7002 86.7002 46.7002s68.2002 -18.7002 86.7002 -46.7002c32.7998 6.7998 68.7002 -2.59961 94.2998 -28.2998
c25.5996 -25.5996 35.0996 -61.4004 28.2998 -94.2998c27.9004 -18.2998 46.7002 -50.2002 46.7002 -86.7002c0 -36.2002 -18.5996 -68.2002 -46.7002 -86.7002c6.7998 -32.7998 -2.59961 -68.7002 -28.2998 -94.2998
c-25.5996 -25.5996 -61.2002 -35.0996 -94.2998 -28.2998c-18.4004 -27.9004 -50.2998 -46.7002 -86.7002 -46.7002zM194.8 44.2002c6.5 -17.4004 15.9004 -60.2002 61.2002 -60.2002c43.9004 0 53.5 39.5996 61.2002 60.2002
c30.5 -13.7998 57.7998 -27.2998 85.7998 0.700195c31 31 9.7998 65.8994 0.700195 85.7998c17.3994 6.5 60.2002 15.8994 60.2002 61.2002c0 43.8994 -39.6006 53.5 -60.2002 61.1992c7.7002 16.9004 31.2998 53.8008 -0.700195 85.8008
c-31 31 -65.9004 9.7998 -85.7998 0.699219c-6.5 17.6006 -15.9004 60.4004 -61.2002 60.4004c-43.9004 0 -53.5 -39.5996 -61.2002 -60.2002c-16.8994 7.7002 -53.7998 31.2998 -85.7998 -0.700195c-31 -31 -9.7998 -65.8994 -0.700195 -85.7998
c-17.5 -6.59961 -60.2998 -16 -60.2998 -61.2998c0 -43.9004 39.5996 -53.5 60.2002 -61.2002c-7.7002 -16.8994 -31.2998 -53.7998 0.700195 -85.7998c31 -31 64.7998 -10.4004 85.8994 -0.799805z" />
    <glyph glyph-name="spinner-third" unicode="&#xf3f4;" 
d="M460.116 74.1543l-20.8232 12.0215c-5.54102 3.19922 -7.54004 10.1592 -4.66309 15.874c30.1367 59.8857 28.3428 131.652 -5.38574 189.946c-33.6416 58.3936 -94.8965 95.833 -161.827 99.6758c-6.38867 0.367188 -11.417 5.57715 -11.417 11.9766v24.043
c0 6.90332 5.80762 12.3369 12.7031 11.9814c83.5557 -4.30566 160.163 -50.8643 202.11 -123.677c42.0625 -72.6963 44.0781 -162.316 6.03027 -236.832c-3.13965 -6.14844 -10.75 -8.46094 -16.7275 -5.00977z" />
    <glyph glyph-name="ticket-alt" unicode="&#xf3ff;" horiz-adv-x="576" 
d="M400 240h-224v-96h224v96zM424 288c13.2549 0 24 -10.7451 24 -24v-144c0 -13.2549 -10.7451 -24 -24 -24h-272c-13.2549 0 -24 10.7451 -24 24v144c0 13.2549 10.7451 24 24 24h272zM568 232c-22.0908 0 -40 -17.9092 -40 -40s17.9092 -40 40 -40h8v-104
c0 -26.5098 -21.4902 -48 -48 -48h-480c-26.5098 0 -48 21.4902 -48 48v104h8c22.0908 0 40 17.9092 40 40s-17.9092 40 -40 40h-8v104c0 26.5098 21.4902 48 48 48h480c26.5098 0 48 -21.4902 48 -48v-104h-8zM528 270.372v65.6279h-480v-65.6279
c28.4707 -14.5898 48 -44.2432 48 -78.3721s-19.5293 -63.7822 -48 -78.3721v-65.6279h480v65.6279c-28.4697 14.5898 -48 44.2432 -48 78.3721s19.5303 63.7822 48 78.3721z" />
    <glyph glyph-name="square-full" unicode="&#xf45c;" 
d="M0 448h512v-512h-512v512zM464 -16v416h-416v-416h416z" />
    <glyph glyph-name="whistle" unicode="&#xf460;" horiz-adv-x="640" 
d="M250.6 194c0 -22.2998 -18.0996 -40.4004 -40.3994 -40.4004s-40.4004 18.1006 -40.4004 40.4004s18.1006 40.4004 40.4004 40.4004s40.3994 -18.1006 40.3994 -40.4004zM482.5 244.2l151.4 -121.2c6.7998 -5.5 8.09961 -15.2998 2.7998 -22.2998l-79 -105.3
c-4.90039 -6.5 -13.9004 -8.40039 -20.9004 -4.30078l-151.7 86.8008c-7.59961 -11.4004 -16.3994 -22.3008 -26.5 -32.4004c-41 -41 -94.6992 -61.5 -148.5 -61.5c-157 0 -258.399 166.6 -186.8 306c-14.1426 11.875 -23.1387 29.6846 -23.1387 49.5781
c0 0.0136719 0.0390625 0.0078125 0.0390625 0.0214844c0 35.6006 29 64.6006 64.5996 64.6006c19.2002 0 36.9004 -8.7998 49.1006 -23.4004c30.0996 15.5 63.0996 23.1006 96.0996 23.1006c86.7002 0 126.5 -42.9004 194.5 -97.3008
c5.2998 -4.2998 7.40039 -11.3994 5.2002 -17.8994l-10.2002 -29.7002c-1.09961 -3.2002 -0.0996094 -6.7998 2.59961 -8.90039l25.5 -20.3994c2.60059 -2.10059 6.30078 -2.40039 9.2002 -0.600586l27.5 16.4004c5.7002 3.40039 13 2.90039 18.2002 -1.2998zM41 318.2
c6.2998 8.5 13 16.7998 20.7002 24.5c7.7998 7.7998 16.0996 14.5996 24.7002 20.8994c-5.90039 5.30078 -13.5 8.30078 -21.6006 8.30078c-17.7998 0 -32.2998 -14.5 -32.2998 -32.3008c0 -8.09961 3.2998 -15.5996 8.5 -21.3994zM574.5 98.5
c2.59961 3.5 2 8.40039 -1.40039 11.2002l-103.399 82.7002l-32.2998 -19.2002c-5.80078 -3.40039 -13.1006 -2.90039 -18.3008 1.2998l-69.5 55.5c-5.2998 4.2998 -7.39941 11.4004 -5.19922 17.9004l12.0996 35.1992s-52 41.5 -60.5996 47.8008
c-33.8008 21.1992 -125.4 52.0996 -199.9 -22.4004c-63 -63 -63 -165.5 0 -228.5c30.5 -30.5 71.0996 -47.5 114.2 -47.5c102.1 0 142.2 83.7002 159.7 109.9l160.1 -91.6006c3.5 -2 8 -1.09961 10.5 2.2002z" />
    <glyph glyph-name="band-aid" unicode="&#xf462;" horiz-adv-x="640" 
d="M552 352c48.5 0 88 -39.5 88 -88v-144c0 -48.5 -39.5 -88 -88 -88h-464c-48.5 0 -88 39.5 -88 88v144c0 48.5 39.5 88 88 88h464zM88 80h104v224h-104c-22.0996 0 -40 -17.9004 -40 -40v-144c0 -22.0996 17.9004 -40 40 -40zM272 168c-13.2998 0 -24 -10.7002 -24 -24
s10.7002 -24 24 -24s24 10.7002 24 24s-10.7002 24 -24 24zM248 240c0 -13.2998 10.7002 -24 24 -24s24 10.7002 24 24s-10.7002 24 -24 24s-24 -10.7002 -24 -24zM344 144c0 -13.2998 10.7002 -24 24 -24s24 10.7002 24 24s-10.7002 24 -24 24s-24 -10.7002 -24 -24z
M368 216c13.2998 0 24 10.7002 24 24s-10.7002 24 -24 24s-24 -10.7002 -24 -24s10.7002 -24 24 -24zM592 120v144c0 22.0996 -17.9004 40 -40 40h-104v-224h104c22.0996 0 40 17.9004 40 40z" />
    <glyph glyph-name="file-medical" unicode="&#xf477;" horiz-adv-x="384" 
d="M224 216v-56h56c4.40039 0 8 -3.59961 8 -8v-48c0 -4.40039 -3.59961 -8 -8 -8h-56v-56c0 -4.40039 -3.59961 -8 -8 -8h-48c-4.40039 0 -8 3.59961 -8 8v56h-56c-4.40039 0 -8 3.59961 -8 8v48c0 4.40039 3.59961 8 8 8h56v56c0 4.40039 3.59961 8 8 8h48
c4.40039 0 8 -3.59961 8 -8zM369.8 350c9 -9 14.2002 -21.2998 14.2002 -34v-332c0 -26.5 -21.5996 -48 -48.0996 -48h-287.9c-26.5 0 -48 21.5 -48 48v415.9c0 26.5 21.5 48 48 48.0996h204c12.7002 0 24.9004 -5.09961 33.9004 -14.0996zM255.9 396v-76.0996h76.0996z
M336 -16v287.9h-104c-13.2998 0 -24 10.6992 -24 24v104h-160v-415.9h288z" />
    <glyph glyph-name="file-medical-alt" unicode="&#xf478;" horiz-adv-x="448" 
d="M433.9 350c9 -9 14.0996 -21.2002 14.0996 -34v-332c0 -26.5 -21.5 -48 -48 -48h-288c-26.5 0 -48 21.5 -48 48v96h48.0996v-96h287.9v287.9h-104c-13.2998 0 -24 10.6992 -24 24v104h-160v-223.9h46.9004l17.0996 -34.2998l49.7002 99.3994
c5.89941 11.8008 22.7002 11.8008 28.5996 0l32.5 -65.0996h57.2002c13.2002 0 24 -10.7998 24 -24s-10.7998 -24 -24 -24h-86.7998l-17.2002 34.2998l-49.7002 -99.3994c-5.89941 -11.8008 -22.7002 -11.8008 -28.5996 0l-32.5 65.0996h-113.2c-8.7998 0 -16 7.2002 -16 16
v16c0 8.7998 7.2002 16 16 16h48v223.9c0 26.5 21.5996 48 48.0996 48.0996h204c12.7002 0 24.8008 -5 33.8008 -14zM320 319.9h76.0996l-76.0996 76.0996v-76.0996z" />
    <glyph glyph-name="x-ray" unicode="&#xf497;" horiz-adv-x="640" 
d="M168 224c-4.40039 0 -8 3.59961 -8 8v16c0 4.40039 3.59961 8 8 8h128v32h-96c-4.40039 0 -8 3.59961 -8 8v16c0 4.40039 3.59961 8 8 8h96v40c0 4.40039 3.59961 8 8 8h32c4.40039 0 8 -3.59961 8 -8v-40h96c4.40039 0 8 -3.59961 8 -8v-16
c0 -4.40039 -3.59961 -8 -8 -8h-96v-32h128c4.40039 0 8 -3.59961 8 -8v-16c0 -4.40039 -3.59961 -8 -8 -8h-128v-32h96c4.40039 0 8 -3.59961 8 -8v-16c0 -4.40039 -3.59961 -8 -8 -8h-96v-32h56c26.5 0 48 -21.5 48 -48s-21.5 -48 -48 -48s-48 21.5 -48 48h-64
c0 -26.5 -21.5 -48 -48 -48s-48 21.5 -48 48s21.5 48 48 48h56v32h-96c-4.40039 0 -8 3.59961 -8 8v16c0 4.40039 3.59961 8 8 8h96v32h-128zM224 80c0 -21.0996 32 -21.2002 32 0s-32 21.2002 -32 0zM416 80c0 21.2002 -32 21.2002 -32 0c0 -21.0996 32 -21.2002 32 0z
M632 400h-56v-416h56c4.40039 0 8 -3.59961 8 -8v-32c0 -4.40039 -3.59961 -8 -8 -8h-624c-4.40039 0 -8 3.59961 -8 8v32c0 4.40039 3.59961 8 8 8h56v416h-56c-4.40039 0 -8 3.59961 -8 8v32c0 4.40039 3.59961 8 8 8h624c4.40039 0 8 -3.59961 8 -8v-32
c0 -4.40039 -3.59961 -8 -8 -8zM528 -16v416h-416v-416h416z" />
    <glyph glyph-name="dove" unicode="&#xf4ba;" 
d="M368 287.8c0 8.7998 7.09961 16 16 16c8.7998 0 16 -7.2002 16 -16s-7.2002 -16 -16 -16s-16 7.2002 -16 16zM384 384h128l-32 -95.9004v-128.399c0 -88.4004 -71.5996 -160.101 -160 -160.101h-40.5996l-76.4004 -54.0996
c-7.59961 -4.7998 -11.7002 -10 -25.2002 -9.40039c-105.899 4.60059 -155 59.3008 -174.8 91.6006c-6.90039 11.0996 -1.40039 26 10.7998 29.2998l114.101 38.5c-41.1006 36.2998 -97.2002 103.3 -95.9004 199.4c0.599609 40 9.7998 77.8994 25.9004 112
c5.7998 12.3994 23.5996 11.8994 29.0996 -0.700195c14.2998 -32.7998 35.2002 -61.9004 60.5996 -86.2998c1 5.7998 1.80078 11.6992 3.40039 17.5c10.7002 40 29.9004 75.5 55 105.1c9 10.5996 25.7998 4.90039 27.9004 -8.40039
c7.19922 -46.6992 27.1992 -89.8994 56.1992 -126.5c9.10059 43.6006 47.7002 76.4004 93.9004 76.4004zM197.4 325c-3.40039 -12.9004 -4.80078 -26.4004 -5.2002 -40.0996c25.5 -15.9004 53.8994 -27.3008 84.0996 -34.1006c-29.3994 29.5 -53.3994 64 -69.2998 102.4
c-3.7998 -9.10059 -7 -18.5 -9.59961 -28.2002zM432 295.9l13.4004 40h-61.4004c-26.5 0 -48 -21.5 -48 -48.1006v-95.7998c-16 0 -161.4 6.90039 -254.1 128c-1.10059 -8.7002 -1.80078 -16.7002 -1.90039 -25.7002c-1.40039 -107.399 85.9004 -171.2 141.7 -217.7
l-154 -52c21.0996 -18.7998 54.7002 -36.8994 107 -40.1992l89.3994 63.6992h55.9004c61.7998 0 112 49.9004 112 111.7v136.101z" />
    <glyph glyph-name="piggy-bank" unicode="&#xf4d3;" horiz-adv-x="576" 
d="M560 224c8.7998 0 16 -7.2002 16 -16v-128c0 -8.7998 -7.2002 -16 -16 -16h-48.7002c-8.89941 -11.7998 -19.5996 -22.0996 -31.2998 -31.0996v-80.9004c0 -8.7998 -7.2002 -16 -16 -16h-112c-8.7998 0 -16 7.2002 -16 16v48h-64v-48c0 -8.7998 -7.2002 -16 -16 -16h-112
c-8.7998 0 -16 7.2002 -16 16v80.7002c-38.5996 29.2002 -64 75.0996 -64 127.3h-8c-33.2998 0 -59.9004 29.2002 -55.5 63.4004c3.59961 28.1992 29 48.5996 57.5 48.5996c3.2998 0 6 -2.7002 6 -6v-20c0 -3.2998 -2.7002 -6 -6 -6h-1
c-11.5996 0 -22.2998 -7.7998 -24.5 -19.2002c-3 -15.2998 8.7002 -28.7998 23.5 -28.7998h11.2002c10.7998 52.9004 47.7002 96.2002 96.5996 116.1c-2.2998 8.90039 -3.7998 18.2002 -3.7998 27.9004c0 61.9004 50.0996 112 112 112s112 -50.0996 112 -112
c0 -3.5 -0.599609 -6.7998 -1 -10.2002c23.2002 16.1006 50.7002 26.2002 81 26.2002h16v-64.5996c21.7998 -16.5 39.4004 -38.1006 50.5 -63.4004h29.5zM272 400c-35.2998 0 -64 -28.7002 -64 -64c0 -6 1.09961 -11.7998 2.7002 -17.2998
c4.5 0.299805 8.7998 1.2998 13.2998 1.2998h109.7c1.39941 5.09961 2.2998 10.4004 2.2998 16c0 35.2998 -28.7002 64 -64 64zM528 112v64h-28.9004c-22.8994 52.2998 -21.6992 53.0996 -67.0996 87.5v34.7002c-18.4004 -6.90039 -31.0996 -18.6006 -40.5996 -26.2002
h-167.4c-61.7998 0 -112 -50.2002 -112 -112c0 -63.5996 49.4004 -92.4004 64 -103.4v-72.5996h48v64h160v-64h48v72.5996c36 27.5 31.9004 24.3008 55.4004 55.4004h40.5996zM432 192c8.7998 0 16 -7.2002 16 -16s-7.2002 -16 -16 -16s-16 7.2002 -16 16s7.2002 16 16 16z
" />
    <glyph glyph-name="skull" unicode="&#xf54c;" 
d="M344 248c30.9004 0 56 -25.0996 56 -56s-25.0996 -56 -56 -56s-56 25.0996 -56 56s25.0996 56 56 56zM168 248c30.9004 0 56 -25.0996 56 -56s-25.0996 -56 -56 -56s-56 25.0996 -56 56s25.0996 56 56 56zM256 448c141.4 0 256 -100.3 256 -224
c0 -70.0996 -36.9004 -132.6 -94.4004 -173.7c-9.69922 -6.89941 -15.1992 -18.2002 -13.5 -29.8994l6.80078 -47.9004c2.69922 -19.2998 -12.2002 -36.5 -31.7002 -36.5h-246.3c-19.5 0 -34.4004 17.2002 -31.7002 36.5l6.7998 47.9004
c1.7002 11.7998 -3.7998 23 -13.5 29.8994c-57.5996 41.1006 -94.5 103.601 -94.5 173.7c0 123.7 114.6 224 256 224zM389.7 89.4004c47.2002 33.6992 74.2998 82.6992 74.2998 134.6c0 97 -93.2998 176 -208 176s-208 -79 -208 -176
c0 -51.9004 27.0996 -100.9 74.2998 -134.6c24.6006 -17.5 37.2998 -46.5 33.2002 -75.7002l-4.2002 -29.7002h40.7002v40c0 4.40039 3.59961 8 8 8h16c4.40039 0 8 -3.59961 8 -8v-40h64v40c0 4.40039 3.59961 8 8 8h16c4.40039 0 8 -3.59961 8 -8v-40h40.7002
l-4.2002 29.7002c-4.09961 29.2002 8.59961 58.2002 33.2002 75.7002z" />
    <glyph glyph-name="tshirt" unicode="&#xf553;" horiz-adv-x="640" 
d="M638 327c3.2998 -9.90039 2.5 -20.4004 -1.90039 -29.9004l-53 -106.199c-9.59961 -19.2002 -33 -27.1006 -52.0996 -17.4004l-23.5 11.0996c-5.2998 2.5 -11.4004 -1.2998 -11.4004 -7.19922v-185.2c0 -31 -25.0996 -56.2002 -56 -56.2002h-240
c-30.8994 0 -56 25.2002 -56 56.2002v185.3c0 5.7998 -6.09961 9.7002 -11.3994 7.2002l-24 -11.2998c-18.6006 -9.30078 -42 -1.5 -51.6006 17.6992l-53 106.2c-4.69922 9.2998 -5.39941 19.7998 -2.09961 29.7002c3.2998 9.7998 10.2998 17.7998 19.5996 22.4004
l198.2 98.5996c9.10059 -12.5996 27.7998 -50.2998 100.2 -50.2998c71.7998 0 90.7002 37.0996 100.2 50.2998l198.3 -98.5996c9.2998 -4.60059 16.2002 -12.6006 19.5 -22.4004zM544 220.6l44.7002 89.8008l-155.5 77.2998
c-26.2998 -23.9004 -67.7002 -38.2002 -113.2 -38.2002s-86.9004 14.2998 -113.3 38.2998l-155.5 -77.2998l44.7998 -89.9004l73.2002 34.6006c10.5996 5 22.7998 -2.7998 22.7998 -14.5v-248.601c0 -4.39941 3.59961 -8 8 -8h240c4.40039 0 8 3.60059 8 8v248.601
c0 11.7998 12.2002 19.5 22.7998 14.5z" />
    <glyph glyph-name="award" unicode="&#xf559;" horiz-adv-x="448" 
d="M446.34 14.79c5.95996 -13.1504 -4.85938 -27.4297 -20.46 -27.4404c-0.290039 0 -0.580078 0.0107422 -0.879883 0.0205078l-72.8604 2.50977l-50.1299 -47.6494c-4.4502 -4.23047 -10.2598 -6.23047 -16.0098 -6.23047c-8.53027 0 -16.9199 4.38965 -20.5498 12.4004
l-41.4502 91.4697l-41.4502 -91.4697c-3.62988 -8.01074 -12.0195 -12.4004 -20.5498 -12.4004c-5.74023 0 -11.5498 2 -16.0195 6.23047l-50.1309 47.6494l-72.8594 -2.50977c-0.290039 -0.00976562 -0.589844 -0.0205078 -0.879883 -0.0205078
c-15.6006 0 -26.4102 14.29 -20.4502 27.4404l62.3594 137.62c-4.31934 11.1299 -7.23926 13.0801 -22.3398 28.1895c-8.09082 8.09375 -13.0859 19.2627 -13.0859 31.5996c0 4.00488 0.527344 7.88672 1.5166 11.5811c8.2998 30.9697 8.29004 26.6699 0 57.6201
c-4.14062 15.4199 0.279297 31.8896 11.5693 43.1797c22.6807 22.6797 20.5205 18.9395 28.8105 49.9004c4.11328 15.3711 16.2383 27.4951 31.6094 31.6094c30.9707 8.2998 27.2402 6.15039 49.9004 28.8105c8.09473 8.09668 19.2686 13.0957 31.6113 13.0957
c4.00391 0 7.88477 -0.527344 11.5791 -1.51562c30.9297 -8.29004 26.75 -8.27051 57.6191 0c3.69434 0.989258 7.56934 1.52734 11.5732 1.52734c12.3418 0 23.5234 -5.01074 31.6172 -13.1074c22.6797 -22.6807 18.9404 -20.5205 49.9004 -28.8105
c15.3711 -4.11426 27.4961 -16.2383 31.6094 -31.6094c8.2998 -30.9805 6.14062 -27.2207 28.8203 -49.9209c8.09082 -8.09375 13.0859 -19.2637 13.0859 -31.6006c0 -4.00391 -0.527344 -7.88574 -1.51562 -11.5791c-8.30078 -30.9697 -8.29004 -26.6699 0 -57.6201
c0.989258 -3.69434 1.52734 -7.56836 1.52734 -11.5723c0 -12.3369 -5.00684 -23.5137 -13.0977 -31.6074c-14.0205 -14.0205 -17.9004 -16.7598 -22.3398 -28.1904zM153.73 1.09961l28.8691 63.7002c-1.93945 -0.25 -3.85938 -0.799805 -5.80957 -0.799805
c-11.5596 0 -23 4.46973 -31.6299 13.0996c-16.2705 16.2705 -17.9199 15.2305 -43.0605 21.9707c-2.85938 0.769531 -5.44922 2.05957 -8.04004 3.33984l-29.7197 -65.5898l49.9902 1.71973zM177.28 112.86c26.4199 15.4092 62.2998 18.1396 93.4395 -0.0400391
c22.6504 22.6494 34.6602 25.0498 60.9307 32.0898c11.4199 42.5898 18.1094 46.96 39.3994 68.25c-8.18945 30.5498 -11.3301 36.5098 0 78.8096c-22.3594 22.3701 -28.0596 25.9502 -39.3994 68.25c-42.5908 11.4199 -46.9502 18.1104 -68.2402 39.4004
c-29.6006 -7.94043 -36.1699 -11.4199 -78.79 0c-31.1797 -31.1797 -39.1602 -31.6201 -68.25 -39.4004c-8.19043 -30.5498 -8.4502 -37.2793 -39.4102 -68.2393c7.88965 -29.4102 11.5098 -35.8604 0 -78.79c22.3604 -22.3604 28.0596 -25.9404 39.4004 -68.2402
c27.1797 -7.29004 38.8994 -10.0098 60.9199 -32.0898zM353.79 37.8496l29.8701 -1.01953l-29.7197 65.5801c-2.60059 -1.28027 -5.19043 -2.58008 -8.04004 -3.33984c-25.25 -6.77051 -26.6504 -5.56055 -43.0605 -21.9707
c-8.62988 -8.62988 -20.0801 -13.0996 -31.6299 -13.0996c-1.9502 0 -3.87012 0.540039 -5.80957 0.799805l28.8691 -63.7002l39.4004 37.4404zM320 256c0 -53.0195 -42.9805 -96 -96 -96s-96 42.9805 -96 96s42.9805 96 96 96s96 -42.9805 96 -96zM224 208
c26.4697 0 48 21.5303 48 48s-21.5303 48 -48 48s-48 -21.5303 -48 -48s21.5303 -48 48 -48z" />
    <glyph glyph-name="file-contract" unicode="&#xf56c;" horiz-adv-x="384" 
d="M196.66 84.6699c19.75 16.1699 54.0596 9.69043 65.9902 -14.1602c2.04004 -4.12012 5.87988 -6.5 10.1592 -6.5h15.1904c8.83984 0 16 -7.16016 16 -16s-7.16016 -16 -16 -16h-15.2002c-16.4297 0 -31.2402 9.14062 -38.6201 23.8398
c-2.93945 5.94043 -8.09961 6.53027 -10.1895 6.53027s-7.25 -0.599609 -10.0303 -6.18945l-7.66016 -15.3301c-2.71973 -5.4502 -8.28027 -8.86035 -14.3096 -8.86035c-0.370117 0 -0.740234 0.0195312 -1.12012 0.0498047
c-6.56543 0.457031 -12.0537 4.88086 -14.0605 10.8906l-16.8096 50.4795l-10.6201 -31.8896c-5.87988 -17.6504 -22.3496 -29.5303 -40.9697 -29.5303h-12.4102c-8.83984 0 -16 7.16016 -16 16s7.16016 16 16 16h12.4102c4.80957 0 9.08984 3.05957 10.5898 7.63965
l18.2197 54.6504c3.28027 9.82031 12.4404 16.4102 22.7803 16.4102s19.5 -6.60059 22.7803 -16.4102zM369.83 350.02c9 -9 14.1699 -21.2998 14.1699 -33.9893v-332.04c0 -26.4902 -21.5703 -47.9902 -48.0703 -47.9902h-287.939
c-26.4902 0 -47.9902 21.5 -47.9902 47.9902v415.92c0 26.4902 21.5 47.9902 47.9902 48.0898h204.06c12.6904 0 24.8906 -5.09961 33.8906 -14.0996zM255.95 396.01v-76.0801h76.0898zM336 -16.0098v287.95h-104.04c-13.2998 0 -24 10.6895 -24 23.9893v103.98h-159.97
v-415.92h288.01zM88 336c-4.41992 0 -8 3.58008 -8 8v16c0 4.41992 3.58008 8 8 8h80c4.41992 0 8 -3.58008 8 -8v-16c0 -4.41992 -3.58008 -8 -8 -8h-80zM88 272c-4.41992 0 -8 3.58008 -8 8v16c0 4.41992 3.58008 8 8 8h80c4.41992 0 8 -3.58008 8 -8v-16
c0 -4.41992 -3.58008 -8 -8 -8h-80z" />
    <glyph glyph-name="file-download" unicode="&#xf56d;" horiz-adv-x="384" 
d="M216 211.93v-84.0098h48.8701c10.71 0 16.0498 -12.9795 8.4502 -20.5195l-72.3105 -71.7705c-4.99023 -4.9502 -13.04 -4.9502 -18.0293 0l-72.3105 71.7705c-7.59961 7.5498 -2.25977 20.5195 8.4502 20.5195h48.8799v84.0098c0 6.62988 5.37012 12 12 12h24
c6.62988 0 12 -5.37012 12 -12zM369.83 350.02c9 -9 14.1699 -21.2998 14.1699 -33.9893v-332.04c0 -26.4902 -21.5703 -47.9902 -48.0703 -47.9902h-287.939c-26.4902 0 -47.9902 21.5 -47.9902 47.9902v415.92c0 26.4902 21.5 47.9902 47.9902 48.0898h204.06
c12.6904 0 24.8906 -5.09961 33.8906 -14.0996zM255.95 396.01v-76.0801h76.0898zM336 -16.0098v287.95h-104.04c-13.2998 0 -24 10.6895 -24 23.9893v103.98h-159.97v-415.92h288.01z" />
    <glyph glyph-name="file-export" unicode="&#xf56e;" horiz-adv-x="576" 
d="M572.29 168.94c4.9502 -4.99023 4.9502 -13.04 0 -18.0303l-71.7705 -72.3105c-7.5498 -7.59961 -20.5195 -2.25977 -20.5195 8.4502v48.8799h-308c-6.62988 0 -12 5.37012 -12 12v24c0 6.62988 5.37012 12 12 12h164v88.0107h-104.04
c-13.2998 0 -24 10.6895 -24 23.9893v103.98h-159.97v-415.92h288.01v103.939h48v-103.939c0 -26.4902 -21.5703 -47.9902 -48.0703 -47.9902h-287.939c-26.4902 0 -47.9902 21.5 -47.9902 47.9902v415.92c0 26.4902 21.5 47.9902 47.9902 48.0898h204.06
c12.6904 0 24.8906 -5.09961 33.8906 -14.0996l83.8896 -83.8906c9 -8.99023 14.1699 -21.29 14.1699 -33.9902v-132.1h96v48.8799c0 10.71 12.9697 16.0498 20.5195 8.4502zM255.95 319.93h76.0898l-76.0898 76.0801v-76.0801z" />
    <glyph glyph-name="file-import" unicode="&#xf56f;" 
d="M497.83 350.02c9 -9 14.1699 -21.2998 14.1699 -33.9893v-332.04c0 -26.4902 -21.5703 -47.9902 -48.0703 -47.9902h-287.939c-26.4902 0 -47.9902 21.5 -47.9902 47.9902v103.939h47.9902v-103.939h288.01v287.95h-104.04c-13.2998 0 -24 10.6895 -24 23.9893v103.98
h-159.97v-215.99h112.01v48.8799c0 10.71 12.9697 16.0498 20.5195 8.4502l71.7705 -72.3096c4.9502 -4.99023 4.9502 -13.04 0 -18.0303l-71.7705 -72.3105c-7.5498 -7.59961 -20.5195 -2.25977 -20.5195 8.4502v48.8799h-276c-6.62988 0 -12 5.37012 -12 12v24
c0 6.62988 5.37012 12 12 12h116v215.98c0 26.4902 21.5 47.9902 47.9902 48.0898h204.06c12.6904 0 24.8906 -5.09961 33.8906 -14.0996zM383.95 319.93h76.0898l-76.0898 76.0801v-76.0801z" />
    <glyph glyph-name="file-invoice" unicode="&#xf570;" horiz-adv-x="384" 
d="M296 48c4.41992 0 8 -3.58008 8 -8v-16c0 -4.41992 -3.58008 -8 -8 -8h-80c-4.41992 0 -8 3.58008 -8 8v16c0 4.41992 3.58008 8 8 8h80zM80 208c0 8.83984 7.16016 16 16 16h192c8.83984 0 16 -7.16016 16 -16v-96c0 -8.83984 -7.16016 -16 -16 -16h-192
c-8.83984 0 -16 7.16016 -16 16v96zM112 192v-64h160v64h-160zM369.83 350.02c9 -9 14.1699 -21.2998 14.1699 -33.9893v-332.04c0 -26.4902 -21.5703 -47.9902 -48.0703 -47.9902h-287.939c-26.4902 0 -47.9902 21.5 -47.9902 47.9902v415.92
c0 26.4902 21.5 47.9902 47.9902 48.0898h204.06c12.6904 0 24.8906 -5.09961 33.8906 -14.0996zM255.95 396.01v-76.0801h76.0898zM336 -16.0098v287.95h-104.04c-13.2998 0 -24 10.6895 -24 23.9893v103.98h-159.97v-415.92h288.01zM88 336c-4.41992 0 -8 3.58008 -8 8v16
c0 4.41992 3.58008 8 8 8h80c4.41992 0 8 -3.58008 8 -8v-16c0 -4.41992 -3.58008 -8 -8 -8h-80zM88 272c-4.41992 0 -8 3.58008 -8 8v16c0 4.41992 3.58008 8 8 8h80c4.41992 0 8 -3.58008 8 -8v-16c0 -4.41992 -3.58008 -8 -8 -8h-80z" />
    <glyph glyph-name="file-invoice-dollar" unicode="&#xf571;" horiz-adv-x="384" 
d="M369.83 350.02c9 -9 14.1699 -21.2998 14.1699 -33.9893v-332.04c0 -26.4902 -21.5703 -47.9902 -48.0703 -47.9902h-287.939c-26.4902 0 -47.9902 21.5 -47.9902 47.9902v415.92c0 26.4902 21.5 47.9902 47.9902 48.0898h204.06
c12.6904 0 24.8906 -5.09961 33.8906 -14.0996zM255.95 396.01v-76.0801h76.0898zM336 -16.0098v287.95h-104.04c-13.2998 0 -24 10.6895 -24 23.9893v103.98h-159.97v-415.92h288.01zM208 232v-24.29c11.29 -0.580078 22.2695 -4.51953 31.3701 -11.3496
c3.89941 -2.93066 4.09961 -8.77051 0.570312 -12.1406l-11.75 -11.21c-2.77051 -2.63965 -6.89062 -2.75977 -10.1309 -0.729492c-3.85938 2.42969 -8.25977 3.71973 -12.8193 3.71973h-28.1104c-6.5 0 -11.7998 -5.91992 -11.7998 -13.1904
c0 -5.94922 3.61035 -11.1797 8.76953 -12.7295l45 -13.5c18.6006 -5.58008 31.5801 -23.4199 31.5801 -43.3896c0 -24.5303 -19.0498 -44.4404 -42.6699 -45.0703v-24.1201c0 -4.41992 -3.58008 -8 -8 -8h-16c-4.41992 0 -8 3.58008 -8 8v24.29
c-11.29 0.580078 -22.2695 4.51953 -31.3701 11.3496c-3.89941 2.93066 -4.09961 8.77051 -0.569336 12.1406l11.75 11.21c2.76953 2.63965 6.88965 2.75977 10.1299 0.729492c3.85938 -2.42969 8.25977 -3.71973 12.8193 -3.71973h28.1104
c6.5 0 11.7998 5.91992 11.7998 13.1904c0 5.94922 -3.60938 11.1797 -8.76953 12.7295l-45 13.5c-18.6006 5.58008 -31.5801 23.4199 -31.5801 43.3896c0 24.5205 19.0498 44.4404 42.6699 45.0703v24.1201c0 4.41992 3.58008 8 8 8h16c4.41992 0 8 -3.58008 8 -8zM88 336
c-4.41992 0 -8 3.58008 -8 8v16c0 4.41992 3.58008 8 8 8h80c4.41992 0 8 -3.58008 8 -8v-16c0 -4.41992 -3.58008 -8 -8 -8h-80zM176 280c0 -4.41992 -3.58008 -8 -8 -8h-80c-4.41992 0 -8 3.58008 -8 8v16c0 4.41992 3.58008 8 8 8h80c4.41992 0 8 -3.58008 8 -8v-16z" />
    <glyph glyph-name="file-prescription" unicode="&#xf572;" horiz-adv-x="384" 
d="M369.83 350.02c9 -9 14.1699 -21.2998 14.1699 -33.9893v-332.04c0 -26.4902 -21.5703 -47.9902 -48.0703 -47.9902h-287.939c-26.4902 0 -47.9902 21.5 -47.9902 47.9902v415.92c0 26.4902 21.5 47.9902 47.9902 48.0898h204.06
c12.6904 0 24.8906 -5.09961 33.8906 -14.0996zM255.95 396.01v-76.0801h76.0898zM336 -16.0098v287.95h-104.04c-13.2998 0 -24 10.6895 -24 23.9893v103.98h-159.97v-415.92h288.01zM224.97 117.66c0.379883 1.14941 0.459961 2.39941 1.36035 3.2998l36.6895 36.6904
c3.12012 3.11914 8.19043 3.11914 11.3105 0l11.3096 -11.3105c3.12012 -3.12012 3.12012 -8.18945 0 -11.3096l-36.6895 -36.6904c-0.910156 -0.910156 -2.16016 -0.990234 -3.31055 -1.37012l40 -40c3.12012 -3.12012 3.12012 -8.18945 0 -11.3096l-11.3096 -11.3105
c-3.12012 -3.11914 -8.19043 -3.11914 -11.3105 0l-40 40c-0.379883 -1.14941 -0.449219 -2.38965 -1.36914 -3.30957l-36.6904 -36.6904c-3.12012 -3.11914 -8.19043 -3.11914 -11.3096 0l-11.3105 11.3105c-3.12012 3.12012 -3.12012 8.18945 0 11.3096l36.6904 36.6904
c0.910156 0.910156 2.16016 0.990234 3.30957 1.37012l-48.9697 48.9697h-25.3701v-40c0 -4.41992 -3.58008 -8 -8 -8h-16c-4.41992 0 -8 3.58008 -8 8v144c0 4.41992 3.58008 8 8 8h64c30.9297 0 56 -25.0703 56 -56c0 -22.0303 -12.8301 -40.9004 -31.3301 -50.04z
M168 176c13.2305 0 24 10.7695 24 24s-10.7695 24 -24 24h-40v-48h40z" />
    <glyph glyph-name="file-signature" unicode="&#xf573;" horiz-adv-x="576" 
d="M568.54 280.67c9.9502 -9.93945 9.9502 -26.0703 0 -36.0098l-27.25 -27.25l-67.8799 67.8799l27.25 27.25c9.93945 9.94043 26.0703 9.94043 36.0098 0zM329.06 142l121.721 120.66l67.8799 -67.8799l-134.66 -135.58v-75.21
c0 -26.4902 -21.5703 -47.9902 -48.0703 -47.9902h-287.939c-26.4902 0 -47.9902 21.5 -47.9902 47.9902v415.92c0 26.4902 21.5 47.9902 47.9902 48.0898h204.06c12.6904 0 24.8906 -5.09961 33.8906 -14.0996l83.8896 -83.8906
c9 -8.99023 14.1699 -21.29 14.1699 -33.9902v-74.5l-48 -47.5791v78h-104.04c-13.2998 0 -24 10.6895 -24 23.9893v103.98h-159.97v-415.91h288.01v48.0098h-63.2002c-16.4297 0 -31.2402 9.14062 -38.6201 23.8398c-2.93945 5.94043 -8.09961 6.53027 -10.1895 6.53027
s-7.25 -0.599609 -10.0303 -6.18945l-7.66016 -15.3301c-2.71973 -5.4502 -8.28027 -8.86035 -14.3096 -8.86035c-0.370117 0 -0.740234 0.0195312 -1.12012 0.0498047c-6.56543 0.457031 -12.0537 4.88086 -14.0605 10.8906l-16.8096 50.4795l-10.6201 -31.8896
c-5.87988 -17.6504 -22.3496 -29.5303 -40.9697 -29.5303h-12.4102c-8.83984 0 -16 7.16016 -16 16s7.16016 16 16 16h12.4102c4.80957 0 9.08984 3.05957 10.5898 7.63965l18.21 54.6504c3.28027 9.82031 12.4404 16.4102 22.7803 16.4102s19.5 -6.60059 22.7793 -16.4102
l13.8809 -41.6201c19.7197 16.1699 54.0293 9.69043 66 -14.1699c2.04004 -4.12012 5.87988 -6.5 10.1592 -6.5h24.7607l15.2295 50.8896c3.10547 10.3838 8.75684 19.6748 16.2598 27.1104zM255.95 396.01v-76.0801h76.0898z" />
    <glyph glyph-name="file-upload" unicode="&#xf574;" horiz-adv-x="384" 
d="M369.83 350.02c9 -9 14.1699 -21.2998 14.1699 -33.9893v-332.04c0 -26.4902 -21.5703 -47.9902 -48.0703 -47.9902h-287.939c-26.4902 0 -47.9902 21.5 -47.9902 47.9902v415.92c0 26.4902 21.5 47.9902 47.9902 48.0898h204.06
c12.6904 0 24.8906 -5.09961 33.8906 -14.0996zM255.95 396.01v-76.0801h76.0898zM336 -16.0098v287.95h-104.04c-13.2998 0 -24 10.6895 -24 23.9893v103.98h-159.97v-415.92h288.01zM182.98 220.21c4.98926 4.9502 13.0498 4.9502 18.0391 0l72.3105 -71.7695
c7.59961 -7.55078 2.25977 -20.5205 -8.4502 -20.5205h-48.8799v-84c0 -6.62988 -5.37012 -12 -12 -12h-24c-6.62988 0 -12 5.37012 -12 12v84h-48.8799c-10.71 0 -16.0498 12.9805 -8.4502 20.5205z" />
    <glyph glyph-name="stamp" unicode="&#xf5bf;" 
d="M416 192c53.0195 0 96 -42.9805 96 -96v-48c0 -8.83984 -7.16016 -16 -16 -16h-16v-64c0 -17.6699 -14.3301 -32 -32 -32h-384c-17.6699 0 -32 14.3301 -32 32v64h-16c-8.83984 0 -16 7.16016 -16 16v48c0 53.0195 42.9805 96 96 96h66.5596
c16.2607 0 29.4404 13.1797 29.4404 29.4404v0.0595703c0 31.79 -9.98047 62.0703 -23.3203 90.9297c-5.55957 12.0303 -8.67969 25.4102 -8.67969 39.5703c0 53.0195 42.9805 96 96 96c5.65039 0 11.4102 -0.490234 17.25 -1.5
c38.79 -6.75 70.4902 -38.6699 77.2598 -77.4502c3.85059 -22.04 0.0605469 -42.8096 -9.0498 -60.4199c-12.5801 -24.3096 -21.46 -50.3604 -21.46 -77.7295v-9.45996c0 -16.2607 13.1797 -29.4404 29.4404 -29.4404h66.5596zM48 96v-16h416v16
c0 26.4697 -21.5303 48 -48 48h-66.5596c-42.7002 0 -77.4404 34.7402 -77.4404 77.4404v9.45996c0 32.25 8.78027 64.8896 26.8203 99.7793c4.79004 9.26074 6.26953 19.4004 4.39941 30.1104c-3.30957 18.9902 -19.3799 35.1396 -38.2002 38.4199
c-3.01953 0.520508 -6.05957 0.790039 -9.01953 0.790039c-26.4697 0 -48 -21.5303 -48 -48c0 -6.78027 1.42969 -13.3203 4.25977 -19.4404c18.9199 -40.9492 27.7402 -76.2393 27.7402 -111.06c0 -42.7598 -34.7402 -77.5 -77.4404 -77.5h-66.5596
c-26.4697 0 -48 -21.5303 -48 -48zM432 -16v48h-352v-48h352z" />
    <glyph glyph-name="suitcase-rolling" unicode="&#xf5c1;" horiz-adv-x="384" 
d="M336 320c26.5098 0 48 -21.4902 48 -48v-256c0 -26.5098 -21.4902 -48 -48 -48h-16v-16c0 -8.83984 -7.16016 -16 -16 -16h-32c-8.83984 0 -16 7.16016 -16 16v16h-128v-16c0 -8.83984 -7.16016 -16 -16 -16h-32c-8.83984 0 -16 7.16016 -16 16v16h-16
c-26.5098 0 -48 21.4902 -48 48v256c0 26.5098 21.4902 48 48 48h48v80c0 26.5098 21.4902 48 48 48h96c26.5098 0 48 -21.4902 48 -48v-80h48zM144 400v-80h96v80h-96zM336 16v256h-288v-256h288zM104 64c-4.41992 0 -8 3.58008 -8 8v32c0 4.41992 3.58008 8 8 8h176
c4.41992 0 8 -3.58008 8 -8v-32c0 -4.41992 -3.58008 -8 -8 -8h-176zM104 176c-4.41992 0 -8 3.58008 -8 8v32c0 4.41992 3.58008 8 8 8h176c4.41992 0 8 -3.58008 8 -8v-32c0 -4.41992 -3.58008 -8 -8 -8h-176z" />
    <glyph glyph-name="file-certificate" unicode="&#xf5f3;" 
d="M497.83 350.02c9 -9 14.1699 -21.2998 14.1699 -33.9893v-332.04c0 -26.4902 -21.5703 -47.9902 -48.0703 -47.9902h-239.93v47.9902h240v287.95h-104.04c-13.2998 0 -24 10.6895 -24 23.9893v103.98h-159.97v-79.9102h-47.9902v79.9102
c0 26.4902 21.5 47.9902 47.9902 48.0898h204.06c12.6904 0 24.8906 -5.09961 33.8906 -14.0996zM383.95 319.93h76.0898l-76.0898 76.0801v-76.0801zM247.42 109.72c-14.8701 -15.1299 -13.4102 -12.5195 -18.8896 -33.2695
c-2.70996 -10.2803 -10.6006 -18.3105 -20.71 -21.0703c-14.3203 -3.89941 -11.5303 -2.97949 -15.8398 -5v-114.38l-64 32l-64 -32v114.38c-4.32031 2.03027 -1.53027 1.10059 -15.8408 5c-10.1094 2.75 -18 10.7803 -20.71 21.0703
c-5.43945 20.6602 -4.01953 18.1602 -18.8701 33.2695c-7.39941 7.53027 -10.29 18.5 -7.5791 28.79c5.41992 20.6299 5.44922 17.71 0 38.4199c-2.71094 10.29 0.179688 21.2607 7.5791 28.79c14.8701 15.1406 13.4102 12.5303 18.8701 33.2705
c2.70996 10.2793 10.6006 18.3096 20.71 21.0693c20.1904 5.51074 17.7803 4.03027 32.6904 19.21c7.40039 7.52051 18.1797 10.4707 28.2803 7.71094c20.29 -5.53027 17.4297 -5.54004 37.75 0c10.1094 2.75977 20.8896 -0.180664 28.29 -7.71094
c14.8496 -15.1094 12.4092 -13.6797 32.6895 -19.21c10.1104 -2.75 18 -10.7793 20.71 -21.0693c5.44043 -20.6602 4.00977 -18.1504 18.8701 -33.2705c7.40039 -7.5293 10.29 -18.5 7.58008 -28.79c-5.44043 -20.6797 -5.42969 -17.7695 0 -38.4199
c2.70996 -10.29 -0.179688 -21.2598 -7.58008 -28.79zM128 96c35.3398 0 64 28.6504 64 64s-28.6602 64 -64 64s-64 -28.6504 -64 -64s28.6602 -64 64 -64z" />
    <glyph glyph-name="theater-masks" unicode="&#xf630;" horiz-adv-x="640" 
d="M206.86 203.53l-7.62988 -43.29c-21.0908 -7.24023 -38.5 -18.2402 -49.9004 -31c-2.41992 32.9902 21.6504 63.8096 57.5303 74.29zM606.8 328.09c24.1699 -13.4502 37.1201 -41.5195 32.1602 -69.6895l-31.7295 -179.96
c-15.3906 -87.2705 -156.83 -152.311 -219.86 -141.2c-63.0303 11.1201 -173.7 120.609 -158.311 207.88l31.7305 179.96c4.95996 28.1699 26.7295 50.1201 54.04 54.4902c50.2695 8.0498 101.02 7.5498 150.32 -1.14062
c49.2998 -8.68945 97.1592 -25.5801 141.649 -50.3398zM559.94 86.7695l31.7197 179.95c1.39941 7.95996 -1.98047 15.9502 -8.21973 19.4199c-39.5908 22.0303 -82.2002 37.1807 -126.641 45.0107c-44.4395 7.83984 -89.6494 8.17969 -134.399 1.01953
c-7.05078 -1.12988 -12.96 -7.46973 -14.3604 -15.4297l-31.7305 -179.96c-10.21 -57.9502 79.3203 -145.21 119.381 -152.271c40.0498 -7.05957 154.029 44.3105 164.25 102.26zM80.0498 150.34c8.00977 -45.29 82.9902 -89.6396 135.87 -100.14
c8.49023 -17.2402 19.3896 -33.8203 31.5996 -49.3799c-3.33984 -0.360352 -6.59961 -0.820312 -10.2891 -0.820312c-68.1201 0 -190.211 61.54 -204.45 142.02l-31.7305 179.45c-4.96973 28.0898 7.98047 56.0801 32.1504 69.4902
c67.8193 37.6299 143.46 57.04 220.12 57.04c23.9199 0 47.9492 -1.88965 71.8701 -5.7002c17.2998 -2.76953 31.7793 -13.04 41.7695 -26.9902c-19.1396 -0.779297 -38.29 -2.30957 -57.1797 -5.31934c-11.1201 -1.78027 -21.5107 -5.60059 -31.0303 -10.8604
c-8.48047 0.530273 -16.9697 1.00977 -25.4199 1.00977c-68.6104 0 -136.66 -17.6299 -196.79 -51c-6.25 -3.46973 -9.62012 -11.4297 -8.21973 -19.3594zM193.36 291.35c3.83984 -21.75 -10.6807 -42.5195 -32.4404 -46.3496s-42.5 10.6904 -46.3398 32.4502
c-0.730469 4.12988 -0.610352 8.17969 -0.0898438 12.1299c10.8096 -5.58008 24.8301 -7.75977 39.4795 -5.17969c14.6504 2.58008 27.0703 9.42969 35.3203 18.3691c1.83984 -3.5293 3.33984 -7.28906 4.07031 -11.4199zM505.95 241.26
c21.7598 -3.83008 36.2803 -24.5801 32.4502 -46.3398c-0.730469 -4.13965 -2.23047 -7.90039 -4.07031 -11.4297c-8.25 8.93945 -20.6797 15.79 -35.3301 18.3701c-14.6504 2.58984 -28.6699 0.399414 -39.4805 -5.18066c-0.519531 3.9502 -0.639648 8 0.0908203 12.1299
c3.83984 21.7607 24.5898 36.29 46.3398 32.4502zM372.95 224.1c-14.6504 2.58008 -28.6699 0.390625 -39.4902 -5.17969c-0.519531 3.9502 -0.639648 8 0.0898438 12.1299c3.83984 21.7598 24.5898 36.29 46.3398 32.4502
c21.7607 -3.83984 36.29 -24.5801 32.4502 -46.3398c-0.729492 -4.14062 -2.22949 -7.90039 -4.07031 -11.4297c-8.23926 8.93945 -20.6699 15.7891 -35.3193 18.3691zM417.26 106.8c43.2803 -7.62988 83.8203 -0.370117 111.931 16.6406
c-14.1709 -52.0605 -66.7002 -85.7207 -122.381 -75.9004c-55.6699 9.82031 -93.5195 59.4102 -89.04 113.18c20.6006 -25.5996 56.2109 -46.29 99.4902 -53.9199z" />
    </font>
</defs>
</svg>
